Вы используете незарегистрированную версию компонента "Вкладки"!

Поиск

2017 Anne Paceo - Circles at Jazz Sous Les Pommiers [HDTV 1080i]

2017 Anne Paceo - Circles at Jazz Sous Les Pommiers [HDTV 1080i]
Место проведения:
Jazz Sous Les Pommiers Festival
Время звучания:
00:38:45
Главы (разбивка по трекам):
нет
Состав:
  • Anne Paceo - drums
  • Boris Darley - sound
  • Leila Martial - voice
  • Tony Paeleman - keyboards
  • Christophe Panzani - saxophones
Видео:
AVC,1920*1080i (16:9), 3571kbps, 25fps
Аудио#1:
AAC LC, 256kbps, 48kHz, 2ch
Отчёт DVDInfo/MediaInfo/BDInfo
Общее
Полное имя : \\Anne Paceo\2017 Anne Paceo - Circles at Jazz Sous Les Pommiers [HDTV 1080i].mp4
Формат : MPEG-4
Профиль формата : Base Media
Идентификатор кодека : isom (isom/iso2/avc1/mp41)
Размер файла : 1,11 Гбайт
Продолжительность : 41 м. 28 с.
Режим общего битрейта : Переменный
Общий поток : 3838 Кбит/сек
Программа кодирования : VideoReDo (Lavf57.71.100)

Видео
Идентификатор : 1
Формат : AVC
Формат/Информация : Advanced Video Codec
Профиль формата : High@L4
Настройки формата : CABAC / 4 Ref Frames
Параметр CABAC формата : Да
Параметр RefFrames формата : 4 кадра
Параметр GOP формата : M=4, N=28
Идентификатор кодека : avc1
Идентификатор кодека/Информация : Advanced Video Coding
Продолжительность : 41 м. 28 с.
Битрейт : 3571 Кбит/сек
Ширина : 1920 пикселей
Высота : 1080 пикселей
Соотношение сторон : 16:9
Частота кадров : 25,000 кадров/сек
Стандарт вещания : Component
Цветовое пространство : YUV
Субдискретизация насыщенности : 4:2:0
Битовая глубина : 8 бит
Тип развёртки : Чересстрочная
Метод сохранения типа развёртки : Раздельные поля
Порядок развёртки : Верхнее поле первое
Бит/(Пиксели*Кадры) : 0.034
Размер потока : 1,03 Гбайт (93%)
Цветовой диапазон : Limited
Основные цвета : BT.709
Характеристики трансфера : BT.709
Коэффициенты матрицы : BT.709
Codec configuration box : avcC

Аудио
Идентификатор : 2
Формат : AAC LC
Формат/Информация : Advanced Audio Codec Low Complexity
Идентификатор кодека : mp4a-40-2
Продолжительность : 41 м. 28 с.
Duration_LastFrame : -21 мс.
Вид битрейта : Переменный
Битрейт : 253 Кбит/сек
Максимальный битрейт : 256 Кбит/сек
Каналы : 2 канала
ChannelLayout : L R
Частота : 48,0 КГц
Частота кадров : 46,875 кадров/сек (1024 SPF)
Метод сжатия : С потерями
Размер потока : 75,2 Мбайт (7%)
Язык : Russian
Default : Да
AlternateGroup/String : 1
Any questions - support@pro-jazz.com. Есть вопросы - support@pro-jazz.com
317
Нет комментариев. Ваш будет первым!