Поиск

2015 Pura Fe - Live at L'Alhambra, Paris [HDTV 1080i]

2015 Pura Fe - Live at L'Alhambra, Paris [HDTV 1080i]
Место проведения:
L'Alhambra, Paris
Дата издания диска (записи):
5 февраля 2015
Время звучания:
00:39:57
Главы (разбивка по трекам):
нет
Состав:
  • Pura Fé - chant
  • Mathis Haug - guitare, banjo, chant
  • Stef Notari - batterie, guitare, piano, chant
  • Eric Longsworth - violoncelle
  • Fred Loumagne - son, régie
Треклист:

1. Idle no More
2. River People
3. Woman's    Shuffle
4. Hiyo Stireh
5. True Freedom
6. Mohomeneh
7. My People My Land
8. Spirit In The Sky

Видео:
AVC,1920*1080i (16:9), 3592kbps, 25fps
Аудио#1:
AAC LC, 256kbps, Constant, 48kHz, 2ch stereo
Отчёт DVDInfo/MediaInfo/BDInfo
Общее
Полное имя : \\Nasf8f4eb\6\Videos\HD\P\Pura Fe\2015 Pura Fe - Live at L'Alhambra, Paris [HDTV 1080i].mp4
Формат : MPEG-4
Профиль формата : Base Media
Идентификатор кодека : isom (isom/iso2/avc1/mp41)
Размер файла : 1,08 Гбайт
Продолжительность : 39 м. 57 с.
Режим общего битрейта : Переменный
Общий поток : 3860 Кбит/сек
Программа кодирования : VideoReDo (Lavf57.71.100)

Видео
Идентификатор : 1
Формат : AVC
Формат/Информация : Advanced Video Codec
Профиль формата : High@L4
Настройки формата : CABAC / 4 Ref Frames
Параметр CABAC формата : Да
Параметр RefFrames формата : 4 кадра
Идентификатор кодека : avc1
Идентификатор кодека/Информация : Advanced Video Coding
Продолжительность : 39 м. 57 с.
Битрейт : 3592 Кбит/сек
Ширина : 1920 пикселей
Высота : 1080 пикселей
Соотношение сторон : 16:9
Режим частоты кадров : Постоянный
Частота кадров : 50,000 кадров/сек
Частота кадров в оригинале : 25,000 кадров/сек
Стандарт вещания : Component
Цветовое пространство : YUV
Субдискретизация насыщенности : 4:2:0
Битовая глубина : 8 бит
Тип развёртки : Чересстрочная
Метод сохранения типа развёртки : Раздельные поля
Порядок развёртки : Верхнее поле первое
Бит/(Пиксели*Кадры) : 0.035
Размер потока : 1,00 Гбайт (93%)
Цветовой диапазон : Limited
Основные цвета : BT.709
Характеристики трансфера : BT.709
Коэффициенты матрицы : BT.709
Codec configuration box : avcC

Аудио
Идентификатор : 2
Формат : AAC LC
Формат/Информация : Advanced Audio Codec Low Complexity
Идентификатор кодека : mp4a-40-2
Продолжительность : 39 м. 57 с.
Duration_LastFrame : -21 мс.
Вид битрейта : Переменный
Битрейт : 253 Кбит/сек
Максимальный битрейт : 256 Кбит/сек
Каналы : 2 канала
ChannelLayout : L R
Частота : 48,0 КГц
Частота кадров : 46,875 кадров/сек (1024 SPF)
Метод сжатия : С потерями
Размер потока : 72,4 Мбайт (7%)
Язык : Russian
Default : Да
AlternateGroup/String : 1
Скриншоты видео
2015 Pura Fe - Live at L'Alhambra, Paris [HDTV 1080i] 02015 Pura Fe - Live at L'Alhambra, Paris [HDTV 1080i] 12015 Pura Fe - Live at L'Alhambra, Paris [HDTV 1080i] 22015 Pura Fe - Live at L'Alhambra, Paris [HDTV 1080i] 32015 Pura Fe - Live at L'Alhambra, Paris [HDTV 1080i] 42015 Pura Fe - Live at L'Alhambra, Paris [HDTV 1080i] 52015 Pura Fe - Live at L'Alhambra, Paris [HDTV 1080i] 6
По всем вопросам пишите личное сообщение пользователю M0p94ok.
533
Нет комментариев. Ваш будет первым!