Вы используете незарегистрированную версию компонента "Вкладки"!

Поиск

2015 David Murray Infinity Quartet feat. Saul Williams - Disruption at Banlieues Bleues Jazz Fest [HDTV 1080i]

2015 David Murray Infinity Quartet feat. Saul Williams - Disruption at Banlieues Bleues Jazz Fest [HDTV 1080i]
Дата проведения концерта (записи):
3 апреля 2015
Место проведения:
Banlieues Bleues
Время звучания:
00:55:04
Главы (разбивка по трекам):
нет
Состав:
  • David Murray - saxophone ténor, clarinette basse
  • Saul Williams - voix, textes
  • Orrin Evans - piano
  • Jaribu Shahid - basse
  • Nasheet Waits - batterie
Видео:
4 891 Kbps, 1920*1080 (16:9), at 25.000 fps, AVC (Component) (High@L4.0) (CABAC / 4 Ref Frames)
Аудио#1:
Russian, 256 Kbps, 48.0 KHz, 2 channels, MPEG Audio (Version 1) (Layer 2)
Отчёт DVDInfo/MediaInfo/BDInfo
General
ID : 1 (0x1)
Complete name : C:\rutracker.org_mezzo live HD\mezzo live HD_David Murray Infinity Quartet feat. Saul Williams - Banlieues bleues 2015.ts
Format : MPEG-TS
File size : 2.08 GiB
Duration : 55mn 4s
Overall bit rate mode : Variable
Overall bit rate : 5 418 Kbps

Video
ID : 203 (0xCB)
Menu ID : 20103 (0x4E87)
Format : AVC
Format/Info : Advanced Video Codec
Format profile : High@L4.0
Format settings, CABAC : Yes
Format settings, ReFrames : 4 frames
Codec ID : 27
Duration : 55mn 4s
Bit rate : 4 891 Kbps
Width : 1 920 pixels
Height : 1 080 pixels
Display aspect ratio : 16:9
Frame rate : 25.000 fps
Standard : Component
Color space : YUV
Chroma subsampling : 4:2:0
Bit depth : 8 bits
Scan type : Interlaced
Scan order : Top Field First
Bits/(Pixel*Frame) : 0.094
Stream size : 1.88 GiB (90%)
Color primaries : BT.709
Transfer characteristics : BT.709
Matrix coefficients : BT.709

Audio
ID : 303 (0x12F)
Menu ID : 20103 (0x4E87)
Format : MPEG Audio
Format version : Version 1
Format profile : Layer 2
Codec ID : 3
Duration : 55mn 4s
Bit rate mode : Constant
Bit rate : 256 Kbps
Channel(s) : 2 channels
Sampling rate : 48.0 KHz
Compression mode : Lossy
Stream size : 101 MiB (5%)
Language : Russian
Any questions - support@pro-jazz.com. Есть вопросы - support@pro-jazz.com
315
Нет комментариев. Ваш будет первым!