Поиск

2017 Dhafer Youssef - Diwan Of Beauty And Odd, Olympia [HDTV 1080i]

2017 Dhafer Youssef - Diwan Of Beauty And Odd, Olympia [HDTV 1080i]
Время звучания:
01:07:21
Главы (разбивка по трекам):
нет
Состав:
  • Dhafer Youssef - oud, vocals
  • Aaron Parks - piano
  • Ambrose Akinmusire - trumpet
  • Ben Williams - bass
  • Mark Guiliana - drums
Видео:
AVC,1920*1080i (16:9), 5510kbps, 25fps
Аудио#1:
AAC LC, 256kbps, 48kHz, 2ch
Отчёт DVDInfo/MediaInfo/BDInfo
Общее
Полное имя : \\2017 Dhafer Youssef - Diwan Of Beauty And Odd, Olympia [HDTV 1080i].mp4
Формат : MPEG-4
Профиль формата : Base Media
Идентификатор кодека : isom (isom/iso2/avc1/mp41)
Размер файла : 1,82 Гбайт
Продолжительность : 1 ч. 7 м.
Режим общего битрейта : Переменный
Общий поток : 3878 Кбит/сек
Программа кодирования : VideoReDo (Lavf57.71.100)

Видео
Идентификатор : 1
Формат : AVC
Формат/Информация : Advanced Video Codec
Профиль формата : High@L4
Настройки формата : CABAC / 4 Ref Frames
Параметр CABAC формата : Да
Параметр RefFrames формата : 4 кадра
Идентификатор кодека : avc1
Идентификатор кодека/Информация : Advanced Video Coding
Продолжительность : 1 ч. 7 м.
Битрейт : 3611 Кбит/сек
Ширина : 1920 пикселей
Высота : 1080 пикселей
Соотношение сторон : 16:9
Режим частоты кадров : Постоянный
Частота кадров : 50,000 кадров/сек
Частота кадров в оригинале : 25,000 кадров/сек
Стандарт вещания : Component
Цветовое пространство : YUV
Субдискретизация насыщенности : 4:2:0
Битовая глубина : 8 бит
Тип развёртки : Чересстрочная
Метод сохранения типа развёртки : Раздельные поля
Порядок развёртки : Верхнее поле первое
Бит/(Пиксели*Кадры) : 0.035
Размер потока : 1,70 Гбайт (93%)
Цветовой диапазон : Limited
Основные цвета : BT.709
Характеристики трансфера : BT.709
Коэффициенты матрицы : BT.709
Codec configuration box : avcC

Аудио
Идентификатор : 2
Формат : AAC LC
Формат/Информация : Advanced Audio Codec Low Complexity
Идентификатор кодека : mp4a-40-2
Продолжительность : 1 ч. 7 м.
Duration_LastFrame : -21 мс.
Вид битрейта : Переменный
Битрейт : 253 Кбит/сек
Максимальный битрейт : 256 Кбит/сек
Каналы : 2 канала
ChannelLayout : L R
Частота : 48,0 КГц
Частота кадров : 46,875 кадров/сек (1024 SPF)
Метод сжатия : С потерями
Размер потока : 122 Мбайт (7%)
Язык : Russian
Default : Да
AlternateGroup/String : 1
Скриншоты видео
2017 Dhafer Youssef - Diwan Of Beauty And Odd, Olympia [HDTV 1080i] 02017 Dhafer Youssef - Diwan Of Beauty And Odd, Olympia [HDTV 1080i] 12017 Dhafer Youssef - Diwan Of Beauty And Odd, Olympia [HDTV 1080i] 22017 Dhafer Youssef - Diwan Of Beauty And Odd, Olympia [HDTV 1080i] 32017 Dhafer Youssef - Diwan Of Beauty And Odd, Olympia [HDTV 1080i] 4
Download available for power users only.
614
Нет комментариев. Ваш будет первым!