Вы используете незарегистрированную версию компонента "Вкладки"!

Поиск

2015 Flat Earth Society - Live At Museion, Sudtirol Jazz Fest [HDTV 1080i]

2015 Flat Earth Society - Live At Museion, Sudtirol Jazz Fest [HDTV 1080i]
Дата проведения концерта (записи):
3 июля 2015
Место проведения:
Museion, Bolzano, Italy
Время звучания:
00:55:00
Главы (разбивка по трекам):
нет
Состав:
  • Stefaan Blancke (trombone)
  • Benjamin Boutreur (saxophone)
  • Berlinde Deman (tuba)
  • Luc Van Lieshout (trumpet)
  • Bart Maris (trumpet)
  • Michel Mast (sax)
  • Marc Meeuwissen (trombone)
  • Kristof Roseeuw (double bass)
  • Bruno Vansina (sax)
  • Peter Vandenberghe (keyboards)
  • Teun Verbruggen (percussion)
  • Pierre Vervloesem (guitar)
  • Wim Willaert (accordion)
  • Tom Wouters (clarinet, percussion)
Видео:
AVC,1920*1080i (16:9), 5195kbps, 25fps
Аудио#1:
AAC LC, 256kbps, 48kHz, 2ch
Описание:

Очередное детище легендарного бельгийского композитора и кларнетиста Peter Vermeersch. Неутомимый новатор и созидатель, Vermeersch активно участвует в современной авангардной музыкальной жизни. Достаточно упомянуть, что он стоял у истоков таких бельгийских супергрупп, как X-Legged Sally, Maximalist!, писал музыку для Ensemble Musique Nouvelle, Quadro Quartet, играл с Фредом Фритом, написал целый ряд произведений для ведущих европейских хореографов и театров. Кроме того, одно время руководил Knitting Factory, основал Zonk Records.
Условно обозначая стилевую направленность FES как симбиоз джаза во всех его проявлениях, авант-рока и классического авангарда, конечно, невозможно передать все нюансы музыкального творчества бельгийской команды.

Отчёт DVDInfo/MediaInfo/BDInfo
Общее
Полное имя : \\2015 Flat Earth Society - Live At Museion, Sudtirol Jazz Fest [HDTV 1080i].mp4
Формат : MPEG-4
Профиль формата : Base Media
Идентификатор кодека : isom (isom/iso2/avc1/mp41)
Размер файла : 2,10 Гбайт
Продолжительность : 55 м. 6 с.
Режим общего битрейта : Переменный
Общий поток : 5462 Кбит/сек
Программа кодирования : VideoReDo (Lavf57.71.100)

Видео
Идентификатор : 1
Формат : AVC
Формат/Информация : Advanced Video Codec
Профиль формата : High@L4
Настройки формата : CABAC / 4 Ref Frames
Параметр CABAC формата : Да
Параметр RefFrames формата : 4 кадра
Идентификатор кодека : avc1
Идентификатор кодека/Информация : Advanced Video Coding
Продолжительность : 55 м. 6 с.
Битрейт : 5195 Кбит/сек
Ширина : 1920 пикселей
Высота : 1080 пикселей
Соотношение сторон : 16:9
Режим частоты кадров : Постоянный
Частота кадров : 50,000 кадров/сек
Частота кадров в оригинале : 25,000 кадров/сек
Стандарт вещания : Component
Цветовое пространство : YUV
Субдискретизация насыщенности : 4:2:0
Битовая глубина : 8 бит
Тип развёртки : Чересстрочная
Метод сохранения типа развёртки : Раздельные поля
Порядок развёртки : Верхнее поле первое
Бит/(Пиксели*Кадры) : 0.050
Размер потока : 2,00 Гбайт (95%)
Цветовой диапазон : Limited
Основные цвета : BT.709
Характеристики трансфера : BT.709
Коэффициенты матрицы : BT.709
Codec configuration box : avcC

Аудио
Идентификатор : 2
Формат : AAC LC
Формат/Информация : Advanced Audio Codec Low Complexity
Идентификатор кодека : mp4a-40-2
Продолжительность : 55 м. 6 с.
Duration_LastFrame : -21 мс.
Вид битрейта : Переменный
Битрейт : 253 Кбит/сек
Максимальный битрейт : 256 Кбит/сек
Каналы : 2 канала
ChannelLayout : L R
Частота : 48,0 КГц
Частота кадров : 46,875 кадров/сек (1024 SPF)
Метод сжатия : С потерями
Размер потока : 99,9 Мбайт (5%)
Язык : Russian
Default : Да
AlternateGroup/String : 1
Any questions - support@pro-jazz.com. Есть вопросы - support@pro-jazz.com
342
Нет комментариев. Ваш будет первым!