Поиск

2011 Fanfaron, Creation de Rene Lacaille - Live au Festival Les Deours de Babel [HDTV 1080p]

2011 Fanfaron, Creation de Rene Lacaille - Live au Festival Les Deours de Babel [HDTV 1080p]
Дата проведения концерта (записи):
16 апреля 2011
Место проведения:
Festival Les Deours de Babel
Время звучания:
00:52:10
Треклист:

1. Maloya
2. Kosa nana La
3. Lusaka
4. Triaz
5. Mazurka 28
6. Reunion Brazil
7. Zob blan Nwar
8. Ole Leo

Описание:

Качество: HDTVRip 1080p
Контейнер: MP4
Видео кодек: H.264
Аудио кодек: AAC
Видео: 1920x1080 (16:9), 25.00 fps, AVC, 9004 Кбит, 0.172 bits/pixel
Аудио: 48.0 KHz, AAC-LC, 2 ch, stereo, 128-384 Kbps VBR

Отчёт DVDInfo/MediaInfo/BDInfo
Полное имя : G:\DVD\Fanfaron Rene Lacaille - LaFLDdB 2011\Fanfaron, Creation de Rene Lacaille - Live au Festival LDB.mp4
Формат : MPEG-4
Профиль формата : Base Media / Version 2
Идентификатор кодека : mp42
Размер файла : 3,42 Гбайт
Продолжительность : 52 м.
Общий поток : 9392 Кбит/сек
Дата кодирования : UTC 2013-12-07 13:59:54
Дата пометки : UTC 2013-12-07 13:59:54

Видео
Идентификатор : 2
Формат : AVC
Формат/Информация : Advanced Video Codec
Профиль формата : Main@L4.0
Параметр CABAC формата : Да
Параметр ReFrames формата : 2 кадра
Идентификатор кодека : avc1
Идентификатор кодека/Информация : Advanced Video Coding
Продолжительность : 52 м.
Вид битрейта : Переменный
Битрейт : 9004 Кбит/сек
Максимальный битрейт : 9001 Кбит/сек
Ширина : 1920 пикселей
Высота : 1088 пикселей
Высота оригинала : 1080 пикселей
Соотношение сторон : 16:9
Соотношение сторон в оригинале : 16:9
Режим частоты кадров : Постоянный
Частота кадров : 25,000 кадров/сек
Частота кадров в оригинале : 12,500 кадров/сек
Цветовое пространство : YUV
Субдискретизация насыщенности : 4:2:0
Битовая глубина : 8 бит
Тип развёртки : Прогрессивная
Бит/(Пиксели*Кадры) : 0.172
Размер потока : 3,28 Гбайт (96%)
Язык : English
Дата кодирования : UTC 2013-12-07 13:59:54
Дата пометки : UTC 2013-12-07 13:59:54

Аудио
Идентификатор : 1
Формат : AAC
Формат/Информация : Advanced Audio Codec
Профиль формата : LC
Идентификатор кодека : 40
Продолжительность : 52 м.
Вид битрейта : Постоянный
Битрейт : 384 Кбит/сек
Номинальный битрейт : 128 Кбит/сек
Каналы : 2 канала
Расположение каналов : Front: L R
Частота : 48,0 КГц
Метод сжатия : С потерями
Размер потока : 143 Мбайт (4%)
Язык : English
Дата кодирования : UTC 2013-12-07 13:59:54
Дата пометки : UTC 2013-12-07 13:59:54
Скриншоты видео
2011 Fanfaron, Creation de Rene Lacaille - Live au Festival Les Deours de Babel [HDTV 1080p] 02011 Fanfaron, Creation de Rene Lacaille - Live au Festival Les Deours de Babel [HDTV 1080p] 12011 Fanfaron, Creation de Rene Lacaille - Live au Festival Les Deours de Babel [HDTV 1080p] 22011 Fanfaron, Creation de Rene Lacaille - Live au Festival Les Deours de Babel [HDTV 1080p] 32011 Fanfaron, Creation de Rene Lacaille - Live au Festival Les Deours de Babel [HDTV 1080p] 42011 Fanfaron, Creation de Rene Lacaille - Live au Festival Les Deours de Babel [HDTV 1080p] 52011 Fanfaron, Creation de Rene Lacaille - Live au Festival Les Deours de Babel [HDTV 1080p] 62011 Fanfaron, Creation de Rene Lacaille - Live au Festival Les Deours de Babel [HDTV 1080p] 72011 Fanfaron, Creation de Rene Lacaille - Live au Festival Les Deours de Babel [HDTV 1080p] 82011 Fanfaron, Creation de Rene Lacaille - Live au Festival Les Deours de Babel [HDTV 1080p] 92011 Fanfaron, Creation de Rene Lacaille - Live au Festival Les Deours de Babel [HDTV 1080p] 102011 Fanfaron, Creation de Rene Lacaille - Live au Festival Les Deours de Babel [HDTV 1080p] 112011 Fanfaron, Creation de Rene Lacaille - Live au Festival Les Deours de Babel [HDTV 1080p] 12
По всем вопросам пишите личное сообщение пользователю M0p94ok.
551
Нет комментариев. Ваш будет первым!