Вы используете незарегистрированную версию компонента "Вкладки"!

Поиск

2011 Orchestre National De Jazz - Shut Up And Dance! [HDTV 1080p]

2011 Orchestre National De Jazz - Shut Up And Dance! [HDTV 1080p]
Дата проведения концерта (записи):
25 января 2011
Место проведения:
Theatre du Chatelet
Время звучания:
00:56:52
Главы (разбивка по трекам):
нет
Состав:
  • Eve Risser (piano, prepared piano, flutes)
  • Vincent Lafont (keyboards, electronics)
  • Antonin-Tri Hoang (alto saxophone, clarinets, piano)
  • Remi Dumoulin (tenor saxophone, clarinets)
  • Matthieu Metzger (saxophones, electronic treatments)
  • Joce Mienniel (flutes, electronics)
  • Sylvain Bardiau (trumpet)
  • Pierre Perchaud (guitars, banjo)
  • Sylvain Daniel (electric bass)
  • Yoann Serra (drums)
Видео:
1920x1080 (16:9), 25.00 fps, AVC, 8814 Кбит, 0.169 bits/pixel
Аудио#1:
48.0 KHz, AAC-LC, 2 ch, stereo, 128-384 Kbps VBR
Отчёт DVDInfo/MediaInfo/BDInfo
Полное имя : G:\DVD\Orchestre National De Jazz - SUAD 2011\Orchestre National De Jazz, D Yvinec, J Hollenbeck - Shut Up And Dance!.mp4
Формат : MPEG-4
Профиль формата : Base Media / Version 2
Идентификатор кодека : mp42
Размер файла : 3,66 Гбайт
Продолжительность : 56 м.
Общий поток : 9202 Кбит/сек
Дата кодирования : UTC 2013-12-07 13:01:46
Дата пометки : UTC 2013-12-07 13:01:46

Видео
Идентификатор : 2
Формат : AVC
Формат/Информация : Advanced Video Codec
Профиль формата : Main@L4.0
Параметр CABAC формата : Да
Параметр ReFrames формата : 2 кадра
Идентификатор кодека : avc1
Идентификатор кодека/Информация : Advanced Video Coding
Продолжительность : 56 м.
Вид битрейта : Переменный
Битрейт : 8814 Кбит/сек
Максимальный битрейт : 9001 Кбит/сек
Ширина : 1920 пикселей
Высота : 1088 пикселей
Высота оригинала : 1080 пикселей
Соотношение сторон : 16:9
Соотношение сторон в оригинале : 16:9
Режим частоты кадров : Постоянный
Частота кадров : 25,000 кадров/сек
Частота кадров в оригинале : 12,500 кадров/сек
Цветовое пространство : YUV
Субдискретизация насыщенности : 4:2:0
Битовая глубина : 8 бит
Тип развёртки : Прогрессивная
Бит/(Пиксели*Кадры) : 0.169
Размер потока : 3,50 Гбайт (96%)
Язык : English
Дата кодирования : UTC 2013-12-07 13:01:46
Дата пометки : UTC 2013-12-07 13:01:46

Аудио
Идентификатор : 1
Формат : AAC
Формат/Информация : Advanced Audio Codec
Профиль формата : LC
Идентификатор кодека : 40
Продолжительность : 56 м.
Вид битрейта : Постоянный
Битрейт : 384 Кбит/сек
Номинальный битрейт : 128 Кбит/сек
Каналы : 2 канала
Расположение каналов : Front: L R
Частота : 48,0 КГц
Метод сжатия : С потерями
Размер потока : 156 Мбайт (4%)
Язык : English
Дата кодирования : UTC 2013-12-07 13:01:46
Дата пометки : UTC 2013-12-07 13:01:46
Any questions - support@pro-jazz.com. Есть вопросы - support@pro-jazz.com
317
Нет комментариев. Ваш будет первым!