Вы используете незарегистрированную версию компонента "Вкладки"!

Поиск

2007 Al Foster Quintet - Live at The New Morning [HDTV 1080p]

2007 Al Foster Quintet - Live at The New Morning [HDTV 1080p]
Дата проведения концерта (записи):
25 июля 2007
Место проведения:
New Morning, Paris, France
Время звучания:
00:53:09
Состав:
  • Al Foster - batterie
  • Eddie Henderson - trompette
  • Eli Degibri - sax
  • Georges Callaghan - piano
  • Douglas Weiss - basse
Описание:

Качество: HDTVRip 1080p
Контейнер: MP4
Видео кодек: H.264
Аудио кодек: AAC
Видео: 1920x1080 (16:9), 25.00 fps, AVC, 8807 Кбит, 0.169 bits/pixel
Аудио: 48.0 KHz, AAC-LC, 2 ch, stereo, 128-384 Kbps VBR

Отчёт DVDInfo/MediaInfo/BDInfo
Полное имя : G:\DVD\Al Foster Quintet - LaTNM (2007)\Al Foster Quintet - Live at The New Morning (Live in Paris).mp4
Формат : MPEG-4
Профиль формата : Base Media / Version 2
Идентификатор кодека : mp42
Размер файла : 3,41 Гбайт
Продолжительность : 53 м.
Общий поток : 9195 Кбит/сек
Дата кодирования : UTC 2013-12-03 07:59:46
Дата пометки : UTC 2013-12-03 07:59:46

Видео
Идентификатор : 2
Формат : AVC
Формат/Информация : Advanced Video Codec
Профиль формата : Main@L4.0
Параметр CABAC формата : Да
Параметр ReFrames формата : 2 кадра
Идентификатор кодека : avc1
Идентификатор кодека/Информация : Advanced Video Coding
Продолжительность : 53 м.
Вид битрейта : Переменный
Битрейт : 8807 Кбит/сек
Максимальный битрейт : 9001 Кбит/сек
Ширина : 1920 пикселей
Высота : 1088 пикселей
Высота оригинала : 1080 пикселей
Соотношение сторон : 16:9
Соотношение сторон в оригинале : 16:9
Режим частоты кадров : Постоянный
Частота кадров : 25,000 кадров/сек
Частота кадров в оригинале : 12,500 кадров/сек
Цветовое пространство : YUV
Субдискретизация насыщенности : 4:2:0
Битовая глубина : 8 бит
Тип развёртки : Прогрессивная
Бит/(Пиксели*Кадры) : 0.169
Размер потока : 3,27 Гбайт (96%)
Язык : English
Дата кодирования : UTC 2013-12-03 07:59:46
Дата пометки : UTC 2013-12-03 07:59:46

Аудио
Идентификатор : 1
Формат : AAC
Формат/Информация : Advanced Audio Codec
Профиль формата : LC
Идентификатор кодека : 40
Продолжительность : 53 м.
Вид битрейта : Постоянный
Битрейт : 384 Кбит/сек
Номинальный битрейт : 128 Кбит/сек
Каналы : 2 канала
Расположение каналов : Front: L R
Частота : 48,0 КГц
Метод сжатия : С потерями
Размер потока : 146 Мбайт (4%)
Язык : English
Дата кодирования : UTC 2013-12-03 07:59:46
Дата пометки : UTC 2013-12-03 07:59:46
Any questions - support@pro-jazz.com. Есть вопросы - support@pro-jazz.com
212
Нет комментариев. Ваш будет первым!