Поиск

2013 Anat Cohen Quartet - At Istanbul Jazz Festival [HDTV 1080p]

2013 Anat Cohen Quartet - At Istanbul Jazz Festival [HDTV 1080p]
Место проведения:
Istanbul, Turkey
Время звучания:
01:12:59
Главы (разбивка по трекам):
нет
Состав:
  • Anat Cohen (clarinet and soprano saxophone)
  • Jason Lindner (piano)
  • Joe Martin (bass)
  • Daniel Freedman (drums)
Треклист:

1. Nightmare (Artie Shaw)
2. Anat's Dance (Jason Linder)
3. Tudo Que Voce Podia Ser (Borgers Lo)
4. La Vie En Rose (Mack, Louiguy, Edith Piaf)
5. All Brothers (Daniel Freedman)

Видео:
1920x1080 (16:9), 25.00 fps, AVC, 8977 Кбит, 0.174 bits/pixel
Аудио#1:
48.0 KHz, AAC-LC, 2 ch, stereo, 128-384 Kbps VBR
Отчёт DVDInfo/MediaInfo/BDInfo
Полное имя : G:\DVD\Anat Cohen Quartet - IJF2013\Anat Cohen Quartet - At Istanbul Jazz Festival 2013.mp4
Формат : MPEG-4
Профиль формата : Base Media / Version 2
Идентификатор кодека : mp42
Размер файла : 4,77 Гбайт
Продолжительность : 1 ч. 12 м.
Общий поток : 9365 Кбит/сек
Дата кодирования : UTC 2013-11-26 06:00:14
Дата пометки : UTC 2013-11-26 06:00:14

Видео
Идентификатор : 2
Формат : AVC
Формат/Информация : Advanced Video Codec
Профиль формата : Main@L4.0
Параметр CABAC формата : Да
Параметр ReFrames формата : 2 кадра
Идентификатор кодека : avc1
Идентификатор кодека/Информация : Advanced Video Coding
Продолжительность : 1 ч. 12 м.
Вид битрейта : Переменный
Битрейт : 8977 Кбит/сек
Максимальный битрейт : 9001 Кбит/сек
Ширина : 1920 пикселей
Высота : 1088 пикселей
Высота оригинала : 1080 пикселей
Соотношение сторон : 16:9
Соотношение сторон в оригинале : 16:9
Режим частоты кадров : Постоянный
Частота кадров : 25,000 кадров/сек
Частота кадров в оригинале : 12,500 кадров/сек
Цветовое пространство : YUV
Субдискретизация насыщенности : 4:2:0
Битовая глубина : 8 бит
Тип развёртки : Прогрессивная
Бит/(Пиксели*Кадры) : 0.172
Размер потока : 4,58 Гбайт (96%)
Язык : English
Дата кодирования : UTC 2013-11-26 06:00:14
Дата пометки : UTC 2013-11-26 06:00:14

Аудио
Идентификатор : 1
Формат : AAC
Формат/Информация : Advanced Audio Codec
Профиль формата : LC
Идентификатор кодека : 40
Продолжительность : 1 ч. 12 м.
Вид битрейта : Постоянный
Битрейт : 384 Кбит/сек
Номинальный битрейт : 128 Кбит/сек
Каналы : 2 канала
Расположение каналов : Front: L R
Частота : 48,0 КГц
Метод сжатия : С потерями
Размер потока : 200 Мбайт (4%)
Язык : English
Дата кодирования : UTC 2013-11-26 06:00:14
Дата пометки : UTC 2013-11-26 06:00:14
Скриншоты видео
2013 Anat Cohen Quartet - At Istanbul Jazz Festival [HDTV 1080p] 02013 Anat Cohen Quartet - At Istanbul Jazz Festival [HDTV 1080p] 12013 Anat Cohen Quartet - At Istanbul Jazz Festival [HDTV 1080p] 22013 Anat Cohen Quartet - At Istanbul Jazz Festival [HDTV 1080p] 32013 Anat Cohen Quartet - At Istanbul Jazz Festival [HDTV 1080p] 42013 Anat Cohen Quartet - At Istanbul Jazz Festival [HDTV 1080p] 52013 Anat Cohen Quartet - At Istanbul Jazz Festival [HDTV 1080p] 62013 Anat Cohen Quartet - At Istanbul Jazz Festival [HDTV 1080p] 72013 Anat Cohen Quartet - At Istanbul Jazz Festival [HDTV 1080p] 82013 Anat Cohen Quartet - At Istanbul Jazz Festival [HDTV 1080p] 92013 Anat Cohen Quartet - At Istanbul Jazz Festival [HDTV 1080p] 102013 Anat Cohen Quartet - At Istanbul Jazz Festival [HDTV 1080p] 112013 Anat Cohen Quartet - At Istanbul Jazz Festival [HDTV 1080p] 12
По всем вопросам пишите личное сообщение пользователю M0p94ok.
417
Нет комментариев. Ваш будет первым!