Вы используете незарегистрированную версию компонента "Вкладки"!

Поиск

2014 Kris Bowers feat. Julia Easterlin - Live At Stockholm Jazz Fest [HDTV 1080i]

2014 Kris Bowers feat. Julia Easterlin - Live At Stockholm Jazz Fest [HDTV 1080i]
Дата проведения концерта (записи):
19 октября 2014
Место проведения:
Stockholm, Sweden
Время звучания:
00:57:42
Главы (разбивка по трекам):
нет
Видео:
AVC,1920*1080i (16:9), 4637kbps, 25fps
Аудио#1:
AAC LC, 256kbps, 48kHz, 2ch
Описание:

Американский джазовый пианист, клавишник и композитор Kris Bowers на джазовом фестивале в Стокгольме представляет певицу и автора из штата Джорджия Julia Easterlin, создающую свои экспериментальные композиции в технике "циклической машины", позволяющей исполнительнице во время живого выступления в одиночку создавать эффект многоголосия.

Отчёт DVDInfo/MediaInfo/BDInfo
Общее
Полное имя : \\2014 Kris Bowers feat. Julia Easterlin - Live At Stockholm Jazz Fest [HDTV 1080i].mp4
Формат : MPEG-4
Профиль формата : Base Media
Идентификатор кодека : isom (isom/iso2/avc1/mp41)
Размер файла : 2,00 Гбайт
Продолжительность : 57 м. 42 с.
Режим общего битрейта : Переменный
Общий поток : 4967 Кбит/сек
Программа кодирования : VideoReDo (Lavf57.71.100)

Видео
Идентификатор : 1
Формат : AVC
Формат/Информация : Advanced Video Codec
Профиль формата : High@L4
Настройки формата : CABAC / 4 Ref Frames
Параметр CABAC формата : Да
Параметр RefFrames формата : 4 кадра
Параметр GOP формата : M=8, N=24
Идентификатор кодека : avc1
Идентификатор кодека/Информация : Advanced Video Coding
Продолжительность : 57 м. 42 с.
Битрейт : 4637 Кбит/сек
Ширина : 1920 пикселей
Высота : 1080 пикселей
Соотношение сторон : 16:9
Частота кадров : 25,000 кадров/сек
Цветовое пространство : YUV
Субдискретизация насыщенности : 4:2:0
Битовая глубина : 8 бит
Тип развёртки : MBAFF
Метод сохранения типа развёртки : Чередующиеся поля
Порядок развёртки : Верхнее поле первое
Бит/(Пиксели*Кадры) : 0.089
Размер потока : 1,89 Гбайт (95%)
Цветовой диапазон : Limited
Основные цвета : BT.709
Характеристики трансфера : BT.709
Коэффициенты матрицы : BT.709
Codec configuration box : avcC

Аудио
Идентификатор : 2
Формат : AAC LC
Формат/Информация : Advanced Audio Codec Low Complexity
Идентификатор кодека : mp4a-40-2
Продолжительность : 57 м. 42 с.
Duration_LastFrame : -21 мс.
Вид битрейта : Переменный
Битрейт : 253 Кбит/сек
Максимальный битрейт : 256 Кбит/сек
Каналы : 2 канала
ChannelLayout : L R
Частота : 48,0 КГц
Частота кадров : 46,875 кадров/сек (1024 SPF)
Метод сжатия : С потерями
Размер потока : 105 Мбайт (5%)
Язык : Spanish
Default : Да
AlternateGroup/String : 1
Any questions - support@pro-jazz.com. Есть вопросы - support@pro-jazz.com
306
Нет комментариев. Ваш будет первым!