Вы используете незарегистрированную версию компонента "Вкладки"!

Поиск

2018 Ambrose Akinmusire Quartet - At Jazz a Vienne Fest [HDTV 1080i]

2018 Ambrose Akinmusire Quartet - At Jazz a Vienne Fest [HDTV 1080i]
Дата проведения концерта (записи):
9 июля 2018
Место проведения:
Théâtre Antique, Vienne, France
Главы (разбивка по трекам):
нет
Состав:
  • Ambrose Akinmusire - trumpet
  • Sam Harris - piano
  • Harish Raghavan - bass
  • Justin Brown - drums
Видео:
AVC,1920*1080i (16:9), 5 404kbps, 25fps
Аудио#1:
MPEG 2, 256 Kbps, 48.0 KHz, 2 channels,
Отчёт DVDInfo/MediaInfo/BDInfo
General
ID : 1 (0x1)
Complete name : C:\rutracker.org_mezzo live HD\mezzo live HD_Ambrose Akinmusire Quartet - Jazz a Vienne 2018.ts
Format : MPEG-TS
File size : 2.50 GiB
Duration : 1h 0mn
Overall bit rate mode : Variable
Overall bit rate : 5 957 Kbps

Video
ID : 203 (0xCB)
Menu ID : 20103 (0x4E87)
Format : AVC
Format/Info : Advanced Video Codec
Format profile : High@L4.0
Format settings, CABAC : Yes
Format settings, ReFrames : 4 frames
Format settings, GOP : M=4, N=28
Codec ID : 27
Duration : 1h 0mn
Bit rate : 5 404 Kbps
Width : 1 920 pixels
Height : 1 080 pixels
Display aspect ratio : 16:9
Frame rate : 25.000 fps
Standard : Component
Color space : YUV
Chroma subsampling : 4:2:0
Bit depth : 8 bits
Scan type : Interlaced
Scan order : Top Field First
Bits/(Pixel*Frame) : 0.104
Stream size : 2.27 GiB (91%)
Color primaries : BT.709
Transfer characteristics : BT.709
Matrix coefficients : BT.709

Audio
ID : 303 (0x12F)
Menu ID : 20103 (0x4E87)
Format : MPEG Audio
Format version : Version 1
Format profile : Layer 2
Codec ID : 3
Duration : 1h 0mn
Bit rate mode : Constant
Bit rate : 256 Kbps
Channel(s) : 2 channels
Sampling rate : 48.0 KHz
Compression mode : Lossy
Stream size : 110 MiB (4%)
Language : Russian
Any questions - support@pro-jazz.com. Есть вопросы - support@pro-jazz.com
293
Нет комментариев. Ваш будет первым!