Вы используете незарегистрированную версию компонента "Вкладки"!

Поиск

2012 Childhood Journeys & Obsisens de Andy Emler, MegaOctet & les Perccussions de Strasbourg - Live at Jazzdor Festival [HDTV 1080p]

2012 Childhood Journeys & Obsisens de Andy Emler, MegaOctet & les Perccussions de Strasbourg - Live at Jazzdor Festival [HDTV 1080p]
Дата проведения концерта (записи):
9 ноября 2012
Место проведения:
festival Jazzdor Le Maillon, Theatre de Strasbourg
Время звучания:
01:37:19
Описание:

Childhood Journeys & Obsisens de Andy Emler, MegaOctet & les Perccussions de Strasbourg — Live at Jazzdor Festival (2012)
Enregistre Au festival Jazzdor Le Maillon, Theatre de Strasbourg — Scene europeenne 9 novembre 2012

Качество: HDTVRip 1080p
Контейнер: MPEG-4
Видео кодек: H.264
Аудио кодек: AAC
Видео: 1920x1080 (16:9), 25.00 fps, AVC, 9041 Кбит, 0.173 bits/pixel
Аудио: 48.0 KHz, AAC-LC, 2 ch, stereo, 128-384 Kbps VBR

Отчёт DVDInfo/MediaInfo/BDInfo
Полное имя : G:\DVD\Childhood J & Andy Emler (2012)\Childhood Journeys & Obsisens de Andy Emler.mp4
Формат : MPEG-4
Профиль формата : Base Media / Version 2
Идентификатор кодека : mp42
Размер файла : 6,41 Гбайт
Продолжительность : 1 ч. 37 м.
Общий поток : 9429 Кбит/сек
Дата кодирования : UTC 2013-11-14 03:33:11
Дата пометки : UTC 2013-11-14 03:33:11

Видео
Идентификатор : 2
Формат : AVC
Формат/Информация : Advanced Video Codec
Профиль формата : Main@L4.0
Параметр CABAC формата : Да
Параметр ReFrames формата : 2 кадра
Идентификатор кодека : avc1
Идентификатор кодека/Информация : Advanced Video Coding
Продолжительность : 1 ч. 37 м.
Вид битрейта : Переменный
Битрейт : 9041 Кбит/сек
Максимальный битрейт : 9001 Кбит/сек
Ширина : 1920 пикселей
Высота : 1088 пикселей
Высота оригинала : 1080 пикселей
Соотношение сторон : 16:9
Соотношение сторон в оригинале : 16:9
Режим частоты кадров : Постоянный
Частота кадров : 25,000 кадров/сек
Частота кадров в оригинале : 12,500 кадров/сек
Цветовое пространство : YUV
Субдискретизация насыщенности : 4:2:0
Битовая глубина : 8 бит
Тип развёртки : Прогрессивная
Бит/(Пиксели*Кадры) : 0.173
Размер потока : 6,15 Гбайт (96%)
Язык : English
Дата кодирования : UTC 2013-11-14 03:33:11
Дата пометки : UTC 2013-11-14 03:33:11

Аудио
Идентификатор : 1
Формат : AAC
Формат/Информация : Advanced Audio Codec
Профиль формата : LC
Идентификатор кодека : 40
Продолжительность : 1 ч. 37 м.
Вид битрейта : Постоянный
Битрейт : 384 Кбит/сек
Номинальный битрейт : 128 Кбит/сек
Каналы : 2 канала
Расположение каналов : Front: L R
Частота : 48,0 КГц
Метод сжатия : С потерями
Размер потока : 267 Мбайт (4%)
Язык : English
Дата кодирования : UTC 2013-11-14 03:33:11
Дата пометки : UTC 2013-11-14 03:33:11
Any questions - support@pro-jazz.com. Есть вопросы - support@pro-jazz.com
308
Нет комментариев. Ваш будет первым!