Вы используете незарегистрированную версию компонента "Вкладки"!

Поиск

2010 Joachim Kuhn Solo - Live at Jazzdor Festival [HDTV 1080p]

2010 Joachim Kuhn Solo - Live at Jazzdor Festival [HDTV 1080p]
Дата проведения концерта (записи):
ноября 2010
Место проведения:
Reithalle d'Offenburg
Время звучания:
00:54:27
Главы (разбивка по трекам):
нет
Видео:
1920x1080 (16:9), 25.00 fps, AVC, 8722Кбит, 0.167 bits/pixel
Аудио#1:
48.0 KHz, AAC-LC, 2 ch, stereo, 128-384 Kbps VBR
Отчёт DVDInfo/MediaInfo/BDInfo
Полное имя : G:\DVD\Joachim Kuhn Solo (2011)\Joachim Kuhn Solo - Live at Jazzdor Festival.mp4
Формат : MPEG-4
Профиль формата : Base Media / Version 2
Идентификатор кодека : mp42
Размер файла : 3,46 Гбайт
Продолжительность : 54 м.
Общий поток : 9108 Кбит/сек
Дата кодирования : UTC 2013-11-13 03:40:39
Дата пометки : UTC 2013-11-13 03:40:39

Видео
Идентификатор : 2
Формат : AVC
Формат/Информация : Advanced Video Codec
Профиль формата : Main@L4.0
Параметр CABAC формата : Да
Параметр ReFrames формата : 2 кадра
Идентификатор кодека : avc1
Идентификатор кодека/Информация : Advanced Video Coding
Продолжительность : 54 м.
Вид битрейта : Переменный
Битрейт : 8722 Кбит/сек
Максимальный битрейт : 9001 Кбит/сек
Ширина : 1920 пикселей
Высота : 1088 пикселей
Высота оригинала : 1080 пикселей
Соотношение сторон : 16:9
Соотношение сторон в оригинале : 16:9
Режим частоты кадров : Постоянный
Частота кадров : 25,000 кадров/сек
Частота кадров в оригинале : 12,500 кадров/сек
Цветовое пространство : YUV
Субдискретизация насыщенности : 4:2:0
Битовая глубина : 8 бит
Тип развёртки : Прогрессивная
Бит/(Пиксели*Кадры) : 0.167
Размер потока : 3,32 Гбайт (96%)
Язык : English
Дата кодирования : UTC 2013-11-13 03:40:39
Дата пометки : UTC 2013-11-13 03:40:39

Аудио
Идентификатор : 1
Формат : AAC
Формат/Информация : Advanced Audio Codec
Профиль формата : LC
Идентификатор кодека : 40
Продолжительность : 54 м.
Вид битрейта : Постоянный
Битрейт : 384 Кбит/сек
Номинальный битрейт : 128 Кбит/сек
Каналы : 2 канала
Расположение каналов : Front: L R
Частота : 48,0 КГц
Метод сжатия : С потерями
Размер потока : 149 Мбайт (4%)
Язык : English
Дата кодирования : UTC 2013-11-13 03:40:39
Дата пометки : UTC 2013-11-13 03:40:39
Any questions - support@pro-jazz.com. Есть вопросы - support@pro-jazz.com
279
Нет комментариев. Ваш будет первым!