Вы используете незарегистрированную версию компонента "Вкладки"!

Поиск

2011 Archie Shepp & Joachim Kuhn - Live at Jazzdor Festival [HDTV 1080p]

2011 Archie Shepp & Joachim Kuhn - Live at Jazzdor Festival [HDTV 1080p]
Дата проведения концерта (записи):
12 ноября 2011
Место проведения:
Jazzdor Festival Enregistre a la Reithalle d'Offenburg (Allemagne)
Время звучания:
00:58:14
Состав:
Описание:

Качество: HDTVRip 1080p
Контейнер: MPEG-4
Видео кодек: H.264
Аудио кодек: AAC
Видео: 1920x1080 (16:9), 25.00 fps, AVC, 8989Кбит, 0.172 bits/pixel
Аудио: 48.0 KHz, AAC-LC, 2 ch, stereo, 128-384 Kbps VBR

Отчёт DVDInfo/MediaInfo/BDInfo
Полное имя : G:\DVD\Archie Shepp, Joachim Kuhn - LJF (2011)\Archie Shepp and Joachim Kuhn - Live at Jazzdor Festival.mp4
Формат : MPEG-4
Профиль формата : Base Media / Version 2
Идентификатор кодека : mp42
Размер файла : 3,81 Гбайт
Продолжительность : 58 м.
Общий поток : 9377 Кбит/сек
Дата кодирования : UTC 2013-11-13 02:41:39
Дата пометки : UTC 2013-11-13 02:41:39

Видео
Идентификатор : 2
Формат : AVC
Формат/Информация : Advanced Video Codec
Профиль формата : Main@L4.0
Параметр CABAC формата : Да
Параметр ReFrames формата : 2 кадра
Идентификатор кодека : avc1
Идентификатор кодека/Информация : Advanced Video Coding
Продолжительность : 58 м.
Вид битрейта : Переменный
Битрейт : 8989 Кбит/сек
Максимальный битрейт : 9001 Кбит/сек
Ширина : 1920 пикселей
Высота : 1088 пикселей
Высота оригинала : 1080 пикселей
Соотношение сторон : 16:9
Соотношение сторон в оригинале : 16:9
Режим частоты кадров : Постоянный
Частота кадров : 25,000 кадров/сек
Частота кадров в оригинале : 12,500 кадров/сек
Цветовое пространство : YUV
Субдискретизация насыщенности : 4:2:0
Битовая глубина : 8 бит
Тип развёртки : Прогрессивная
Бит/(Пиксели*Кадры) : 0.172
Размер потока : 3,66 Гбайт (96%)
Язык : English
Дата кодирования : UTC 2013-11-13 02:41:39
Дата пометки : UTC 2013-11-13 02:41:39

Аудио
Идентификатор : 1
Формат : AAC
Формат/Информация : Advanced Audio Codec
Профиль формата : LC
Идентификатор кодека : 40
Продолжительность : 58 м.
Вид битрейта : Постоянный
Битрейт : 384 Кбит/сек
Номинальный битрейт : 128 Кбит/сек
Каналы : 2 канала
Расположение каналов : Front: L R
Частота : 48,0 КГц
Метод сжатия : С потерями
Размер потока : 160 Мбайт (4%)
Язык : English
Дата кодирования : UTC 2013-11-13 02:41:39
Дата пометки : UTC 2013-11-13 02:41:39
Any questions - support@pro-jazz.com. Есть вопросы - support@pro-jazz.com
301
Нет комментариев. Ваш будет первым!