Поиск

2011 VA - Umbria Jazz Festival [HDTV 1080p]

2011 VA - Umbria Jazz Festival [HDTV 1080p]
Время звучания:
00:47:06
Треклист:

1. Francesco Cafiso island Blue Quartet
2. Sergio Mendes The Celebration Tour
3. Tia Fuller Quartet
4. Trombone Shorty & Orleans Avenue
5. Dado Moroni Trio
6. Gilberto Gil For All
7. Hiromi The Trio Project
8. Gabriele Mirabassi with Aca Seca Trio
9. Francesco Bearzatti Tinissima Quartet

Описание:

Качество: HDTVRip 1080p
Контейнер: MPEG-4
Видео кодек: H.264
Аудио кодек: AAC
Видео: 1920x1080 (16:9), 25.00 fps, AVC, 9067 Кбит, 0.174 bits/pixel
Аудио: 48.0 KHz, AAC-LC, 2 ch, stereo, 128-384 Kbps VBR

Отчёт DVDInfo/MediaInfo/BDInfo
Полное имя : G:\DVD\VA - Umbria Jazz Festival 2011\VA - Umbria Jazz Festival 2011.mp4
Формат : MPEG-4
Профиль формата : Base Media / Version 2
Идентификатор кодека : mp42
Размер файла : 3,11 Гбайт
Продолжительность : 47 м.
Общий поток : 9455 Кбит/сек
Дата кодирования : UTC 2013-11-09 05:05:31
Дата пометки : UTC 2013-11-09 05:05:31

Видео
Идентификатор : 2
Формат : AVC
Формат/Информация : Advanced Video Codec
Профиль формата : Main@L4.0
Параметр CABAC формата : Да
Параметр ReFrames формата : 2 кадра
Идентификатор кодека : avc1
Идентификатор кодека/Информация : Advanced Video Coding
Продолжительность : 47 м.
Вид битрейта : Переменный
Битрейт : 9067 Кбит/сек
Максимальный битрейт : 9001 Кбит/сек
Ширина : 1920 пикселей
Высота : 1088 пикселей
Высота оригинала : 1080 пикселей
Соотношение сторон : 16:9
Соотношение сторон в оригинале : 16:9
Режим частоты кадров : Постоянный
Частота кадров : 25,000 кадров/сек
Частота кадров в оригинале : 12,500 кадров/сек
Цветовое пространство : YUV
Субдискретизация насыщенности : 4:2:0
Битовая глубина : 8 бит
Тип развёртки : Прогрессивная
Бит/(Пиксели*Кадры) : 0.174
Размер потока : 2,98 Гбайт (96%)
Язык : English
Дата кодирования : UTC 2013-11-09 05:05:31
Дата пометки : UTC 2013-11-09 05:05:31

Аудио
Идентификатор : 1
Формат : AAC
Формат/Информация : Advanced Audio Codec
Профиль формата : LC
Идентификатор кодека : 40
Продолжительность : 47 м.
Вид битрейта : Постоянный
Битрейт : 384 Кбит/сек
Номинальный битрейт : 128 Кбит/сек
Каналы : 2 канала
Расположение каналов : Front: L R
Частота : 48,0 КГц
Метод сжатия : С потерями
Размер потока : 129 Мбайт (4%)
Язык : English
Дата кодирования : UTC 2013-11-09 05:05:31
Дата пометки : UTC 2013-11-09 05:05:31
Скриншоты видео
2011 VA - Umbria Jazz Festival [HDTV 1080p] 02011 VA - Umbria Jazz Festival [HDTV 1080p] 12011 VA - Umbria Jazz Festival [HDTV 1080p] 22011 VA - Umbria Jazz Festival [HDTV 1080p] 32011 VA - Umbria Jazz Festival [HDTV 1080p] 42011 VA - Umbria Jazz Festival [HDTV 1080p] 52011 VA - Umbria Jazz Festival [HDTV 1080p] 62011 VA - Umbria Jazz Festival [HDTV 1080p] 72011 VA - Umbria Jazz Festival [HDTV 1080p] 82011 VA - Umbria Jazz Festival [HDTV 1080p] 92011 VA - Umbria Jazz Festival [HDTV 1080p] 102011 VA - Umbria Jazz Festival [HDTV 1080p] 112011 VA - Umbria Jazz Festival [HDTV 1080p] 122011 VA - Umbria Jazz Festival [HDTV 1080p] 132011 VA - Umbria Jazz Festival [HDTV 1080p] 142011 VA - Umbria Jazz Festival [HDTV 1080p] 152011 VA - Umbria Jazz Festival [HDTV 1080p] 162011 VA - Umbria Jazz Festival [HDTV 1080p] 17
Download available for power users only.
456
Нет комментариев. Ваш будет первым!