Вы используете незарегистрированную версию компонента "Вкладки"!

Поиск

2004 Mike Stern Band feat. Richard Bona - Live at The New Morning [HDTV 1080p]

2004 Mike Stern Band feat. Richard Bona - Live at The New Morning [HDTV 1080p]
Дата проведения концерта (записи):
9 ноября 2004
Место проведения:
New Morning, Paris, France
Время звучания:
00:54:42
Состав:
  • Mike Stern - guitar
  • Dennis Chambers - drums
  • Bob Franceschini - saxophone
  • Richard Bona - bass
Описание:

Качество: HDTVRip 1080p
Контейнер: MPEG-4
Видео кодек: H.264
Аудио кодек: AAC
Видео: 1920x1080 (16:9), 25.00 fps, AVC, 9071 Кбит, 0.174 bits/pixel
Аудио: 48.0 KHz, AAC-LC, 2 ch, stereo, 128-384 Kbps VBR

Отчёт DVDInfo/MediaInfo/BDInfo
Полное имя : G:\DVD\Mike Stern Band (2004)\Mike Stern Band - Live at The New Morning.mp4
Формат : MPEG-4
Профиль формата : Base Media / Version 2
Идентификатор кодека : mp42
Размер файла : 3,61 Гбайт
Продолжительность : 54 м.
Общий поток : 9459 Кбит/сек
Дата кодирования : UTC 2013-11-07 12:07:38
Дата пометки : UTC 2013-11-07 12:07:38

Видео
Идентификатор : 2
Формат : AVC
Формат/Информация : Advanced Video Codec
Профиль формата : Main@L4.0
Параметр CABAC формата : Да
Параметр ReFrames формата : 2 кадра
Идентификатор кодека : avc1
Идентификатор кодека/Информация : Advanced Video Coding
Продолжительность : 54 м.
Вид битрейта : Переменный
Битрейт : 9071 Кбит/сек
Максимальный битрейт : 9001 Кбит/сек
Ширина : 1920 пикселей
Высота : 1088 пикселей
Высота оригинала : 1080 пикселей
Соотношение сторон : 16:9
Соотношение сторон в оригинале : 16:9
Режим частоты кадров : Постоянный
Частота кадров : 25,000 кадров/сек
Частота кадров в оригинале : 12,500 кадров/сек
Цветовое пространство : YUV
Субдискретизация насыщенности : 4:2:0
Битовая глубина : 8 бит
Тип развёртки : Прогрессивная
Бит/(Пиксели*Кадры) : 0.174
Размер потока : 3,47 Гбайт (96%)
Язык : English
Дата кодирования : UTC 2013-11-07 12:07:38
Дата пометки : UTC 2013-11-07 12:07:38

Аудио
Идентификатор : 1
Формат : AAC
Формат/Информация : Advanced Audio Codec
Профиль формата : LC
Идентификатор кодека : 40
Продолжительность : 54 м.
Вид битрейта : Постоянный
Битрейт : 384 Кбит/сек
Номинальный битрейт : 128 Кбит/сек
Каналы : 2 канала
Расположение каналов : Front: L R
Частота : 48,0 КГц
Метод сжатия : С потерями
Размер потока : 150 Мбайт (4%)
Язык : English
Дата кодирования : UTC 2013-11-07 12:07:38
Дата пометки : UTC 2013-11-07 12:07:38
Any questions - support@pro-jazz.com. Есть вопросы - support@pro-jazz.com
311
Нет комментариев. Ваш будет первым!