Вы используете незарегистрированную версию компонента "Вкладки"!

Поиск

2013 Till Bronner & Band - Jazzfestival Viersen [HDTV 720p]

2013 Till Bronner & Band - Jazzfestival Viersen [HDTV 720p]
Дата проведения концерта (записи):
28 сентября 2013
Место проведения:
27. Internationalen Jazzfestival Viersen
Время звучания:
00:58:16
Состав:
  • Till Brönner - trumpet, flugelhorn, vocals (# 4)
  • Magnus Lindgren - tenor sax, flute
  • Jaspers Soffers - keyboards
  • Christian von Kaphengst - bass
  • David Haynes - drums
Описание:

Качество: HDTV 720p
Контейнер: TS
Видео кодек: H.264
Аудио кодек: AC3
Видео: 7 859 Kbps, 1280*720 (16:9), at 50.000 fps, AVC (High@L4.0) (CABAC / 4 Ref Frames)
Аудио: German, 192 Kbps, 48.0 KHz, 2 channels, MPEG Audio (Version 1) (Layer 2)
Аудио 2: 192 Kbps, 48.0 KHz, 2 channels, MPEG Audio (Version 1) (Layer 2)
Аудио 3: German, 448 Kbps, 48.0 KHz, 16 bits, 2 channels, AC-3

Отчёт DVDInfo/MediaInfo/BDInfo
General
ID : 1 (0x1)
Complete name : E:\rutracker.org_HD\WDR HD_Till Bronner & Band - Jazzfestival Viersen 2013.ts
Format : MPEG-TS
File size : 3.73 GiB
Duration : 58mn 16s
Overall bit rate : 9 152 Kbps

Video
ID : 5501 (0x157D)
Menu ID : 1 (0x1)
Format : AVC
Format/Info : Advanced Video Codec
Format profile : High@L4.0
Format settings, CABAC : Yes
Format settings, ReFrames : 4 frames
Codec ID : 27
Duration : 58mn 16s
Bit rate : 7 859 Kbps
Width : 1 280 pixels
Height : 720 pixels
Display aspect ratio : 16:9
Frame rate : 50.000 fps
Color space : YUV
Chroma subsampling : 4:2:0
Bit depth : 8 bits
Scan type : Progressive
Bits/(Pixel*Frame) : 0.171
Stream size : 3.20 GiB (86%)

Audio #1
ID : 5502 (0x157E)
Menu ID : 1 (0x1)
Format : MPEG Audio
Format version : Version 1
Format profile : Layer 2
Codec ID : 3
Duration : 58mn 16s
Bit rate mode : Constant
Bit rate : 192 Kbps
Channel(s) : 2 channels
Sampling rate : 48.0 KHz
Compression mode : Lossy
Delay relative to video : -20ms
Stream size : 80.0 MiB (2%)
Language : German

Audio #2
ID : 5503 (0x157F)
Menu ID : 1 (0x1)
Format : MPEG Audio
Format version : Version 1
Format profile : Layer 2
Codec ID : 3
Duration : 58mn 16s
Bit rate mode : Constant
Bit rate : 192 Kbps
Channel(s) : 2 channels
Sampling rate : 48.0 KHz
Compression mode : Lossy
Delay relative to video : -20ms
Stream size : 80.0 MiB (2%)

Audio #3
ID : 5506 (0x1582)
Menu ID : 1 (0x1)
Format : AC-3
Format/Info : Audio Coding 3
Mode extension : CM (complete main)
Codec ID : 6
Duration : 58mn 16s
Bit rate mode : Constant
Bit rate : 448 Kbps
Channel(s) : 2 channels
Channel positions : Front: L R
Sampling rate : 48.0 KHz
Bit depth : 16 bits
Compression mode : Lossy
Delay relative to video : -20ms
Stream size : 187 MiB (5%)
Language : German
Any questions - support@pro-jazz.com. Есть вопросы - support@pro-jazz.com
308
Нет комментариев. Ваш будет первым!