Поиск

2012 Marc Ducret Tower Bridge - Live aux Recontres Internationales, D'Jazz de Nevers [HDTV 1080p]

2012 Marc Ducret Tower Bridge - Live aux Recontres Internationales, D'Jazz de Nevers [HDTV 1080p]
Дата проведения концерта (записи):
13 ноября 2012
Место проведения:
Recontres Internationales, D'Jazz de Nevers
Время звучания:
00:58:19
Состав:
  • Kasper Tranberg - trompette
  • Dominique Pifarely - violon
  • Tim Berne - alto sax
  • Matthias Mahler - trombone
  • Fidel Fourneyron - trombone
  • Alexis Persigan - trombone
  • Frederic Gastard - bass sax
  • Antonin Rayon - piano
  • Sylvain lemetre - percussions
  • Tom Rainey - batterie
  • Peter Bruun - batterie
  • Marc Ducret - guitare, composition
  • Celine Grangey - sonorisation
Описание:

Качество: HDTVRip 1080p
Контейнер: MPEG-4
Видео кодек: H.264
Аудио кодек: AAC
Видео: 1920x1080 (16:9), 25.00 fps, AVC, 8851 Кбит, 0.169 bits/pixel
Аудио: 48.0 KHz, AAC-LC, 2 ch, stereo, ~128 Kbps VBR

Отчёт DVDInfo/MediaInfo/BDInfo
Полное имя : G:\DVD\Marc Ducret Tower Bridge - JN 2012\Marc Ducret Tower Bridge - Live aux Recontres Internationales.mp4
Формат : MPEG-4
Профиль формата : Base Media / Version 2
Идентификатор кодека : mp42
Размер файла : 3,76 Гбайт
Продолжительность : 58 м.
Общий поток : 9238 Кбит/сек
Дата кодирования : UTC 2013-11-05 08:10:33
Дата пометки : UTC 2013-11-05 08:10:33

Видео
Идентификатор : 2
Формат : AVC
Формат/Информация : Advanced Video Codec
Профиль формата : Main@L4.0
Параметр CABAC формата : Да
Параметр ReFrames формата : 2 кадра
Идентификатор кодека : avc1
Идентификатор кодека/Информация : Advanced Video Coding
Продолжительность : 58 м.
Вид битрейта : Переменный
Битрейт : 8851 Кбит/сек
Максимальный битрейт : 9001 Кбит/сек
Ширина : 1920 пикселей
Высота : 1088 пикселей
Высота оригинала : 1080 пикселей
Соотношение сторон : 16:9
Соотношение сторон в оригинале : 16:9
Режим частоты кадров : Постоянный
Частота кадров : 25,000 кадров/сек
Частота кадров в оригинале : 12,500 кадров/сек
Цветовое пространство : YUV
Субдискретизация насыщенности : 4:2:0
Битовая глубина : 8 бит
Тип развёртки : Прогрессивная
Бит/(Пиксели*Кадры) : 0.169
Размер потока : 3,61 Гбайт (96%)
Язык : English
Дата кодирования : UTC 2013-11-05 08:10:33
Дата пометки : UTC 2013-11-05 08:10:33

Аудио
Идентификатор : 1
Формат : AAC
Формат/Информация : Advanced Audio Codec
Профиль формата : LC
Идентификатор кодека : 40
Продолжительность : 58 м.
Вид битрейта : Постоянный
Битрейт : 384 Кбит/сек
Номинальный битрейт : 128 Кбит/сек
Каналы : 2 канала
Расположение каналов : Front: L R
Частота : 48,0 КГц
Метод сжатия : С потерями
Размер потока : 160 Мбайт (4%)
Язык : English
Дата кодирования : UTC 2013-11-05 08:10:33
Дата пометки : UTC 2013-11-05 08:10:33
No seeders - write a personal message to M0p94ok. Any questions - support@pro-jazz.com.
Нет сидеров - пишите в личку M0p94ok. Есть вопросы - support@pro-jazz.com
210
Нет комментариев. Ваш будет первым!