Поиск

2012 Vincent Courtois (Trio Mediums) - Mediums - D'Jazz Nevers Festival [HDTV 1080p]

2012 Vincent Courtois (Trio Mediums) - Mediums - D'Jazz Nevers Festival [HDTV 1080p]
Дата проведения концерта (записи):
14 ноября 2012
Место проведения:
Auditorium Jean jaures, D'Jazz Nevers Festival
Время звучания:
01:08:31
Состав:
  • Vincent Courtois - cello
  • Daniel Erdmann - tenor sax
  • Robin Fincker - tenor sax
Треклист:

01. Mounting
02. Jackson's catch
03. Mediums
04. La femme sans corps
05. Une inquietante disparition
06. Regards
07. Amnesique tarantelle
08. Bengal 2
09. Bengal 1
10. Bengal 3
11. Rita and the mediums

Описание:

Качество: HDTVRip 1080p
Контейнер: MPEG-4
Видео кодек: H.264
Аудио кодек: AAC
Видео: 1920x1080 (16:9), 25.00 fps, AVC, 8747 Кбит, 0.167 bits/pixel
Аудио: 48.0 KHz, AAC-LC, 2 ch, stereo, ~128 Kbps VBR

Отчёт DVDInfo/MediaInfo/BDInfo
Полное имя : G:\DVD\Vincent Courtois - Mediums (2013)\Vincent Courtois (Trio Mediums) - Mediums.mp4
Формат : MPEG-4
Профиль формата : Base Media / Version 2
Идентификатор кодека : mp42
Размер файла : 4,37 Гбайт
Продолжительность : 1 ч. 8 м.
Общий поток : 9134 Кбит/сек
Дата кодирования : UTC 2013-11-05 07:00:19
Дата пометки : UTC 2013-11-05 07:00:19

Видео
Идентификатор : 2
Формат : AVC
Формат/Информация : Advanced Video Codec
Профиль формата : Main@L4.0
Параметр CABAC формата : Да
Параметр ReFrames формата : 2 кадра
Идентификатор кодека : avc1
Идентификатор кодека/Информация : Advanced Video Coding
Продолжительность : 1 ч. 8 м.
Вид битрейта : Переменный
Битрейт : 8747 Кбит/сек
Максимальный битрейт : 9001 Кбит/сек
Ширина : 1920 пикселей
Высота : 1088 пикселей
Высота оригинала : 1080 пикселей
Соотношение сторон : 16:9
Соотношение сторон в оригинале : 16:9
Режим частоты кадров : Постоянный
Частота кадров : 25,000 кадров/сек
Частота кадров в оригинале : 12,500 кадров/сек
Цветовое пространство : YUV
Субдискретизация насыщенности : 4:2:0
Битовая глубина : 8 бит
Тип развёртки : Прогрессивная
Бит/(Пиксели*Кадры) : 0.167
Размер потока : 4,19 Гбайт (96%)
Язык : English
Дата кодирования : UTC 2013-11-05 07:00:19
Дата пометки : UTC 2013-11-05 07:00:19

Аудио
Идентификатор : 1
Формат : AAC
Формат/Информация : Advanced Audio Codec
Профиль формата : LC
Идентификатор кодека : 40
Продолжительность : 1 ч. 8 м.
Вид битрейта : Постоянный
Битрейт : 384 Кбит/сек
Номинальный битрейт : 128 Кбит/сек
Каналы : 2 канала
Расположение каналов : Front: L R
Частота : 48,0 КГц
Метод сжатия : С потерями
Размер потока : 188 Мбайт (4%)
Язык : English
Дата кодирования : UTC 2013-11-05 07:00:19
Дата пометки : UTC 2013-11-05 07:00:19
Скриншоты видео
2012 Vincent Courtois (Trio Mediums) - Mediums - D'Jazz Nevers Festival [HDTV 1080p] 02012 Vincent Courtois (Trio Mediums) - Mediums - D'Jazz Nevers Festival [HDTV 1080p] 12012 Vincent Courtois (Trio Mediums) - Mediums - D'Jazz Nevers Festival [HDTV 1080p] 22012 Vincent Courtois (Trio Mediums) - Mediums - D'Jazz Nevers Festival [HDTV 1080p] 32012 Vincent Courtois (Trio Mediums) - Mediums - D'Jazz Nevers Festival [HDTV 1080p] 42012 Vincent Courtois (Trio Mediums) - Mediums - D'Jazz Nevers Festival [HDTV 1080p] 52012 Vincent Courtois (Trio Mediums) - Mediums - D'Jazz Nevers Festival [HDTV 1080p] 62012 Vincent Courtois (Trio Mediums) - Mediums - D'Jazz Nevers Festival [HDTV 1080p] 72012 Vincent Courtois (Trio Mediums) - Mediums - D'Jazz Nevers Festival [HDTV 1080p] 82012 Vincent Courtois (Trio Mediums) - Mediums - D'Jazz Nevers Festival [HDTV 1080p] 92012 Vincent Courtois (Trio Mediums) - Mediums - D'Jazz Nevers Festival [HDTV 1080p] 102012 Vincent Courtois (Trio Mediums) - Mediums - D'Jazz Nevers Festival [HDTV 1080p] 112012 Vincent Courtois (Trio Mediums) - Mediums - D'Jazz Nevers Festival [HDTV 1080p] 12
По всем вопросам пишите личное сообщение пользователю M0p94ok.
485
Нет комментариев. Ваш будет первым!