Вы используете незарегистрированную версию компонента "Вкладки"!

Поиск

2019 The Amazing Keystone Big Band - We Love Ella At Salle Pleyel, Paris [HDTV 1080p]

2019 The Amazing Keystone Big Band - We Love Ella At Salle Pleyel, Paris [HDTV 1080p]
Дата проведения концерта (записи):
23 марта 2019
Место проведения:
Salle Pleyel, Paris, France
Главы (разбивка по трекам):
нет
Состав:
  • Direction artistique : Bastien Ballaz, Jon Boutellier, Fred Nardin, David Enhco
  • Trompettistes : Vincent Labarre, Thierry Se#ieau, Félicien Bouchot, David Enhco
  • Trombonistes : Loïc Bachevillier, Bastien Ballaz, Aloïs Benoit, Sylvain Thomas
  • Saxophonistes : Kenny Jeanney, Pierre Desassis, Jon Boutellier, Eric Prost, Ghyslain Regard
  • Section Rythmique : Fred Nardin (piano), Thibaut François (guitare), Patrick Maradan (contrebasse), Romain Sarron (batterie)
  • Invités : Célia Kaméni (vocals), China Moses (vocals), Sarah McKenzie (vocals), Biréli Lagrène (guitare)
Видео:
AVC, 1920*1080p, (16x9), 3602kbps, 25fps
Аудио#1:
AAC, 256kbps, 48kHz, 2ch
Отчёт DVDInfo/MediaInfo/BDInfo
Общее
Полное имя : \\2019 The Amazing Keystone Big Band - We Love Ella [HDTV 1080p].mp4
Формат : MPEG-4
Профиль формата : Base Media
Идентификатор кодека : isom (isom/iso2/avc1/mp41)
Размер файла : 1,43 Гбайт
Продолжительность : 52 м. 59 с.
Общий поток : 3864 Кбит/сек
Программа кодирования : VideoReDo (Lavf57.71.100)

Видео
Идентификатор : 1
Формат : AVC
Формат/Информация : Advanced Video Codec
Профиль формата : High@L4.1
Настройки формата : CABAC / 4 Ref Frames
Параметр CABAC формата : Да
Параметр RefFrames формата : 4 кадра
Идентификатор кодека : avc1
Идентификатор кодека/Информация : Advanced Video Coding
Продолжительность : 52 м. 59 с.
Битрейт : 3602 Кбит/сек
Ширина : 1920 пикселей
Высота : 1080 пикселей
Соотношение сторон : 16:9
Режим частоты кадров : Постоянный
Частота кадров : 25,000 кадров/сек
Цветовое пространство : YUV
Субдискретизация насыщенности : 4:2:0
Битовая глубина : 8 бит
Тип развёртки : Прогрессивная
Бит/(Пиксели*Кадры) : 0.069
Размер потока : 1,33 Гбайт (93%)
Codec configuration box : avcC

Аудио
Идентификатор : 2
Формат : AAC LC
Формат/Информация : Advanced Audio Codec Low Complexity
Идентификатор кодека : mp4a-40-2
Продолжительность : 52 м. 59 с.
Duration_LastFrame : -21 мс.
Вид битрейта : Постоянный
Битрейт : 256 Кбит/сек
Каналы : 2 канала
ChannelLayout : L R
Частота : 48,0 КГц
Частота кадров : 46,875 кадров/сек (1024 SPF)
Метод сжатия : С потерями
Размер потока : 97,0 Мбайт (7%)
Язык : English
Default : Да
AlternateGroup/String : 1
Any questions - support@pro-jazz.com. Есть вопросы - support@pro-jazz.com
323
Нет комментариев. Ваш будет первым!