Вы используете незарегистрированную версию компонента "Вкладки"!

Поиск

2013 Caro Emerald - In Concert [Blu-ray]

2013 Caro Emerald - In Concert [Blu-ray]
Время звучания:
01:30:01
Описание:

Качество: Blu-ray
Контейнер: BDMV
Видео кодек: H.264
Аудио кодек: PCM, DTS-HD
Видео: MPEG-4 AVC Video / 29994 kbps / 1080i / 29,970 fps / 16:9 / High Profile 4.1
Аудио: LPCM Audio / 2.0 / 48 kHz / 1536 kbps / 16-bit
Аудио 2: DTS-HD Master Audio / 5.1 / 48 kHz / 2874 kbps / 16-bit (DTS Core: 5.1 / 48 kHz / 1509 kbps / 16-bit)

Отчёт DVDInfo/MediaInfo/BDInfo
Disc Title: CARO_INCONCERTBBC_HDGEEK
Disc Size: 30 249 052 659 bytes
Protection: AACS
BD-Java: No
BDInfo: 0.5.8

Notes:

BDINFO HOME:
Cinema Squid
http://www.cinemasquid.com/blu-ray/tools/bdinfo

INCLUDES FORUMS REPORT FOR:
AVS Forum Blu-ray Audio and Video Specifications Thread
http://www.avsforum.com/avs-vb/showthread.php?t=1155731

********************
PLAYLIST: 00005.MPLS
********************

<--- BEGIN FORUMS PASTE --->
Код:
Total Video
Title Codec Length Movie Size Disc Size Bitrate Bitrate Main Audio Track Secondary Audio Track
----- ------ ------- -------------- -------------- ------- ------- ------------------ ---------------------
00005.MPLS AVC 1:30:01 24 610 473 984 30 249 052 659 36,45 29,99 LPCM 2.0 1536Kbps (48kHz/16-bit) DTS-HD Master 5.1 2874Kbps (48kHz/16-bit)
Код:
DISC INFO:

Disc Title: CARO_INCONCERTBBC_HDGEEK
Disc Size: 30 249 052 659 bytes
Protection: AACS
BD-Java: No
BDInfo: 0.5.8

PLAYLIST REPORT:

Name: 00005.MPLS
Length: 1:30:01.262 (h:m:s.ms)
Size: 24 610 473 984 bytes
Total Bitrate: 36,45 Mbps

VIDEO:

Codec Bitrate Description
----- ------- -----------
MPEG-4 AVC Video 29994 kbps 1080i / 29,970 fps / 16:9 / High Profile 4.1

AUDIO:

Codec Language Bitrate Description
----- -------- ------- -----------
LPCM Audio English 1536 kbps 2.0 / 48 kHz / 1536 kbps / 16-bit
DTS-HD Master Audio English 2874 kbps 5.1 / 48 kHz / 2874 kbps / 16-bit (DTS Core: 5.1 / 48 kHz / 1509 kbps / 16-bit)

FILES:

Name Time In Length Size Total Bitrate
---- ------- ------ ---- -------------
00008.M2TS 0:00:00.000 1:30:01.262 24 610 473 984 36 451

CHAPTERS:

Number Time In Length Avg Video Rate Max 1-Sec Rate Max 1-Sec Time Max 5-Sec Rate Max 5-Sec Time Max 10Sec Rate Max 10Sec Time Avg Frame Size Max Frame Size Max Frame Time
------ ------- ------ -------------- -------------- -------------- -------------- -------------- -------------- -------------- -------------- -------------- --------------
1 0:00:00.000 1:30:01.262 29 994 kbps 38 101 kbps 01:24:53.688 33 680 kbps 00:57:00.350 33 111 kbps 01:29:18.219 125 098 bytes 394 633 bytes 00:37:45.463

STREAM DIAGNOSTICS:

File PID Type Codec Language Seconds Bitrate Bytes Packets
---- --- ---- ----- -------- -------------- -------------- ------------- -----
00008.M2TS 4113 (0x1011) 0x1B AVC 5401,129 29 994 20 250 444 138 110 151 035
00008.M2TS 4352 (0x1100) 0x80 LPCM eng (English) 5401,129 1 542 1 041 363 892 6 481 518
00008.M2TS 4353 (0x1101) 0x86 DTS-HD MA eng (English) 5401,129 2 874 1 940 521 604 11 366 019
<---- END FORUMS PASTE ---->

QUICK SUMMARY:

Disc Title: CARO_INCONCERTBBC_HDGEEK
Disc Size: 30 249 052 659 bytes
Protection: AACS
BD-Java: No
Playlist: 00005.MPLS
Size: 24 610 473 984 bytes
Length: 1:30:01.262
Total Bitrate: 36,45 Mbps
Video: MPEG-4 AVC Video / 29994 kbps / 1080i / 29,970 fps / 16:9 / High Profile 4.1
Audio: English / LPCM Audio / 2.0 / 48 kHz / 1536 kbps / 16-bit
Audio: English / DTS-HD Master Audio / 5.1 / 48 kHz / 2874 kbps / 16-bit (DTS Core: 5.1 / 48 kHz / 1509 kbps / 16-bit)

********************
PLAYLIST: 00010.MPLS
********************

<--- BEGIN FORUMS PASTE --->
Код:
Total Video
Title Codec Length Movie Size Disc Size Bitrate Bitrate Main Audio Track Secondary Audio Track
----- ------ ------- -------------- -------------- ------- ------- ------------------ ---------------------
00010.MPLS AVC 1:30:01 24 610 473 984 30 249 052 659 36,45 29,99 LPCM 2.0 1536Kbps (48kHz/16-bit) DTS-HD Master 5.1 2874Kbps (48kHz/16-bit)
Код:
DISC INFO:

Disc Title: CARO_INCONCERTBBC_HDGEEK
Disc Size: 30 249 052 659 bytes
Protection: AACS
BD-Java: No
BDInfo: 0.5.8

PLAYLIST REPORT:

Name: 00010.MPLS
Length: 1:30:01.262 (h:m:s.ms)
Size: 24 610 473 984 bytes
Total Bitrate: 36,45 Mbps

VIDEO:

Codec Bitrate Description
----- ------- -----------
MPEG-4 AVC Video 29994 kbps 1080i / 29,970 fps / 16:9 / High Profile 4.1

AUDIO:

Codec Language Bitrate Description
----- -------- ------- -----------
LPCM Audio English 1536 kbps 2.0 / 48 kHz / 1536 kbps / 16-bit
DTS-HD Master Audio English 2874 kbps 5.1 / 48 kHz / 2874 kbps / 16-bit (DTS Core: 5.1 / 48 kHz / 1509 kbps / 16-bit)

FILES:

Name Time In Length Size Total Bitrate
---- ------- ------ ---- -------------
00008.M2TS 0:00:00.000 1:30:01.262 24 610 473 984 36 451

CHAPTERS:

Number Time In Length Avg Video Rate Max 1-Sec Rate Max 1-Sec Time Max 5-Sec Rate Max 5-Sec Time Max 10Sec Rate Max 10Sec Time Avg Frame Size Max Frame Size Max Frame Time
------ ------- ------ -------------- -------------- -------------- -------------- -------------- -------------- -------------- -------------- -------------- --------------
1 0:00:00.000 0:05:05.972 28 841 kbps 36 230 kbps 00:01:15.175 33 263 kbps 00:04:56.929 32 923 kbps 00:03:57.370 120 280 bytes 376 198 bytes 00:04:58.164
2 0:05:05.972 0:04:13.987 29 476 kbps 36 025 kbps 00:07:43.729 33 158 kbps 00:07:39.926 32 928 kbps 00:07:34.821 122 940 bytes 340 658 bytes 00:06:38.898
3 0:09:19.959 0:04:23.062 30 449 kbps 35 969 kbps 00:09:41.814 33 309 kbps 00:09:37.944 33 103 kbps 00:09:32.738 126 997 bytes 352 655 bytes 00:09:34.006
4 0:13:43.022 0:04:22.929 32 377 kbps 35 366 kbps 00:17:23.308 33 219 kbps 00:14:57.229 33 004 kbps 00:17:47.800 135 041 bytes 361 506 bytes 00:13:47.293
5 0:18:05.951 0:05:30.063 28 357 kbps 35 648 kbps 00:22:34.653 33 188 kbps 00:23:05.050 32 885 kbps 00:19:26.298 118 274 bytes 385 473 bytes 00:19:24.129
6 0:23:36.014 0:06:54.013 31 455 kbps 35 722 kbps 00:27:14.299 33 212 kbps 00:24:25.697 32 996 kbps 00:29:27.365 131 195 bytes 362 172 bytes 00:24:30.469
7 0:30:30.028 0:04:25.298 31 171 kbps 35 840 kbps 00:33:41.052 33 439 kbps 00:33:37.115 32 954 kbps 00:31:20.011 130 008 bytes 363 403 bytes 00:32:07.825
8 0:34:55.326 0:02:31.651 29 633 kbps 36 035 kbps 00:36:25.950 33 137 kbps 00:36:51.375 32 932 kbps 00:35:12.443 123 595 bytes 379 233 bytes 00:36:26.851
9 0:37:26.978 0:06:27.053 29 064 kbps 34 985 kbps 00:43:04.581 33 188 kbps 00:38:46.257 33 000 kbps 00:38:18.863 121 223 bytes 394 633 bytes 00:37:45.463
10 0:43:54.031 0:06:16.976 29 724 kbps 36 500 kbps 00:49:31.668 33 356 kbps 00:43:54.331 32 951 kbps 00:49:56.893 123 974 bytes 385 994 bytes 00:50:03.934
11 0:50:11.008 0:04:22.996 30 515 kbps 35 676 kbps 00:53:16.493 33 183 kbps 00:52:19.503 32 974 kbps 00:52:14.498 127 273 bytes 364 152 bytes 00:53:17.294
12 0:54:34.004 0:05:22.221 31 007 kbps 37 186 kbps 00:57:04.354 33 680 kbps 00:57:00.350 33 006 kbps 00:58:32.442 129 324 bytes 380 673 bytes 00:57:05.121
13 0:59:56.225 0:06:13.372 29 127 kbps 35 234 kbps 01:02:52.935 33 219 kbps 01:02:44.694 32 980 kbps 01:02:40.089 121 485 bytes 357 096 bytes 01:03:13.723
14 1:06:09.598 0:03:42.388 28 360 kbps 35 987 kbps 01:07:04.987 33 196 kbps 01:09:43.979 32 994 kbps 01:07:39.255 118 285 bytes 377 240 bytes 01:09:41.377
15 1:09:51.987 0:04:30.003 31 483 kbps 34 984 kbps 01:10:47.209 33 241 kbps 01:13:39.448 32 986 kbps 01:13:34.309 131 311 bytes 381 311 bytes 01:11:22.578
16 1:14:21.990 0:03:08.188 30 162 kbps 35 241 kbps 01:16:16.905 33 091 kbps 01:15:26.989 32 902 kbps 01:15:29.858 125 799 bytes 363 106 bytes 01:14:31.400
17 1:17:30.178 0:06:34.527 30 839 kbps 35 847 kbps 01:20:47.242 33 324 kbps 01:22:45.660 33 053 kbps 01:22:40.655 128 626 bytes 394 040 bytes 01:19:27.696
18 1:24:04.706 0:05:56.556 28 120 kbps 38 101 kbps 01:24:53.688 33 556 kbps 01:29:23.091 33 111 kbps 01:29:18.219 117 293 bytes 379 890 bytes 01:29:27.595

STREAM DIAGNOSTICS:

File PID Type Codec Language Seconds Bitrate Bytes Packets
---- --- ---- ----- -------- -------------- -------------- ------------- -----
00008.M2TS 4113 (0x1011) 0x1B AVC 5401,129 29 994 20 250 444 138 110 151 035
00008.M2TS 4352 (0x1100) 0x80 LPCM eng (English) 5401,129 1 542 1 041 363 892 6 481 518
00008.M2TS 4353 (0x1101) 0x86 DTS-HD MA eng (English) 5401,129 2 874 1 940 521 604 11 366 019
<---- END FORUMS PASTE ---->

QUICK SUMMARY:

Disc Title: CARO_INCONCERTBBC_HDGEEK
Disc Size: 30 249 052 659 bytes
Protection: AACS
BD-Java: No
Playlist: 00010.MPLS
Size: 24 610 473 984 bytes
Length: 1:30:01.262
Total Bitrate: 36,45 Mbps
Video: MPEG-4 AVC Video / 29994 kbps / 1080i / 29,970 fps / 16:9 / High Profile 4.1
Audio: English / LPCM Audio / 2.0 / 48 kHz / 1536 kbps / 16-bit
Audio: English / DTS-HD Master Audio / 5.1 / 48 kHz / 2874 kbps / 16-bit (DTS Core: 5.1 / 48 kHz / 1509 kbps / 16-bit)

********************
PLAYLIST: 00008.MPLS
********************

<--- BEGIN FORUMS PASTE --->
Код:
Total Video
Title Codec Length Movie Size Disc Size Bitrate Bitrate Main Audio Track Secondary Audio Track
----- ------ ------- -------------- -------------- ------- ------- ------------------ ---------------------
00008.MPLS AVC 0:13:13 3 331 534 848 30 249 052 659 33,59 30,00 LPCM 2.0 1536Kbps (48kHz/16-bit)
Код:
DISC INFO:

Disc Title: CARO_INCONCERTBBC_HDGEEK
Disc Size: 30 249 052 659 bytes
Protection: AACS
BD-Java: No
BDInfo: 0.5.8

PLAYLIST REPORT:

Name: 00008.MPLS
Length: 0:13:13.425 (h:m:s.ms)
Size: 3 331 534 848 bytes
Total Bitrate: 33,59 Mbps

VIDEO:

Codec Bitrate Description
----- ------- -----------
MPEG-4 AVC Video 29999 kbps 1080i / 29,970 fps / 16:9 / High Profile 4.1

AUDIO:

Codec Language Bitrate Description
----- -------- ------- -----------
LPCM Audio English 1536 kbps 2.0 / 48 kHz / 1536 kbps / 16-bit

SUBTITLES:

Codec Language Bitrate Description
----- -------- ------- -----------
Presentation Graphics English 58,108 kbps
Presentation Graphics German 58,466 kbps
Presentation Graphics Spanish 50,977 kbps
Presentation Graphics French 56,120 kbps
Presentation Graphics Italian 55,604 kbps
Presentation Graphics Dutch 55,392 kbps

FILES:

Name Time In Length Size Total Bitrate
---- ------- ------ ---- -------------
00011.M2TS 0:00:00.000 0:13:13.425 3 331 534 848 33 591

CHAPTERS:

Number Time In Length Avg Video Rate Max 1-Sec Rate Max 1-Sec Time Max 5-Sec Rate Max 5-Sec Time Max 10Sec Rate Max 10Sec Time Avg Frame Size Max Frame Size Max Frame Time
------ ------- ------ -------------- -------------- -------------- -------------- -------------- -------------- -------------- -------------- -------------- --------------
1 0:00:00.000 0:13:13.425 29 999 kbps 34 872 kbps 00:00:16.583 33 163 kbps 00:04:55.128 32 644 kbps 00:00:08.575 125 120 bytes 376 144 bytes 00:01:55.415

STREAM DIAGNOSTICS:

File PID Type Codec Language Seconds Bitrate Bytes Packets
---- --- ---- ----- -------- -------------- -------------- ------------- -----
00011.M2TS 4113 (0x1011) 0x1B AVC 793,293 30 004 2 975 222 988 16 183 506
00011.M2TS 4352 (0x1100) 0x80 LPCM eng (English) 793,293 1 543 152 973 304 952 116
00011.M2TS 4608 (0x1200) 0x90 PGS eng (English) 793,293 58 5 763 017 32 847
00011.M2TS 4609 (0x1201) 0x90 PGS deu (German) 793,293 58 5 798 562 33 037
00011.M2TS 4610 (0x1202) 0x90 PGS spa (Spanish) 793,293 51 5 055 801 28 993
00011.M2TS 4611 (0x1203) 0x90 PGS fra (French) 793,293 56 5 565 855 31 777
00011.M2TS 4612 (0x1204) 0x90 PGS ita (Italian) 793,293 56 5 514 719 31 490
00011.M2TS 4613 (0x1205) 0x90 PGS nld (Dutch) 793,293 55 5 493 722 31 379
<---- END FORUMS PASTE ---->

QUICK SUMMARY:

Disc Title: CARO_INCONCERTBBC_HDGEEK
Disc Size: 30 249 052 659 bytes
Protection: AACS
BD-Java: No
Playlist: 00008.MPLS
Size: 3 331 534 848 bytes
Length: 0:13:13.425
Total Bitrate: 33,59 Mbps
Video: MPEG-4 AVC Video / 29999 kbps / 1080i / 29,970 fps / 16:9 / High Profile 4.1
Audio: English / LPCM Audio / 2.0 / 48 kHz / 1536 kbps / 16-bit
Subtitle: English / 58,108 kbps
Subtitle: German / 58,466 kbps
Subtitle: Spanish / 50,977 kbps
Subtitle: French / 56,120 kbps
Subtitle: Italian / 55,604 kbps
Subtitle: Dutch / 55,392 kbps

********************
PLAYLIST: 00013.MPLS
********************

<--- BEGIN FORUMS PASTE --->
Код:
Total Video
Title Codec Length Movie Size Disc Size Bitrate Bitrate Main Audio Track Secondary Audio Track
----- ------ ------- -------------- -------------- ------- ------- ------------------ ---------------------
00013.MPLS AVC 0:13:13 3 331 534 848 30 249 052 659 33,59 30,00 LPCM 2.0 1536Kbps (48kHz/16-bit)
Код:
DISC INFO:

Disc Title: CARO_INCONCERTBBC_HDGEEK
Disc Size: 30 249 052 659 bytes
Protection: AACS
BD-Java: No
BDInfo: 0.5.8

PLAYLIST REPORT:

Name: 00013.MPLS
Length: 0:13:13.425 (h:m:s.ms)
Size: 3 331 534 848 bytes
Total Bitrate: 33,59 Mbps

VIDEO:

Codec Bitrate Description
----- ------- -----------
MPEG-4 AVC Video 29999 kbps 1080i / 29,970 fps / 16:9 / High Profile 4.1

AUDIO:

Codec Language Bitrate Description
----- -------- ------- -----------
LPCM Audio English 1536 kbps 2.0 / 48 kHz / 1536 kbps / 16-bit

SUBTITLES:

Codec Language Bitrate Description
----- -------- ------- -----------
Presentation Graphics English 58,108 kbps
Presentation Graphics German 58,466 kbps
Presentation Graphics Spanish 50,977 kbps
Presentation Graphics French 56,120 kbps
Presentation Graphics Italian 55,604 kbps
Presentation Graphics Dutch 55,392 kbps

FILES:

Name Time In Length Size Total Bitrate
---- ------- ------ ---- -------------
00011.M2TS 0:00:00.000 0:13:13.425 3 331 534 848 33 591

CHAPTERS:

Number Time In Length Avg Video Rate Max 1-Sec Rate Max 1-Sec Time Max 5-Sec Rate Max 5-Sec Time Max 10Sec Rate Max 10Sec Time Avg Frame Size Max Frame Size Max Frame Time
------ ------- ------ -------------- -------------- -------------- -------------- -------------- -------------- -------------- -------------- -------------- --------------
1 0:00:00.000 0:13:13.425 29 999 kbps 34 872 kbps 00:00:16.583 33 163 kbps 00:04:55.128 32 644 kbps 00:00:08.575 125 120 bytes 376 144 bytes 00:01:55.415

STREAM DIAGNOSTICS:

File PID Type Codec Language Seconds Bitrate Bytes Packets
---- --- ---- ----- -------- -------------- -------------- ------------- -----
00011.M2TS 4113 (0x1011) 0x1B AVC 793,293 30 004 2 975 222 988 16 183 506
00011.M2TS 4352 (0x1100) 0x80 LPCM eng (English) 793,293 1 543 152 973 304 952 116
00011.M2TS 4608 (0x1200) 0x90 PGS eng (English) 793,293 58 5 763 017 32 847
00011.M2TS 4609 (0x1201) 0x90 PGS deu (German) 793,293 58 5 798 562 33 037
00011.M2TS 4610 (0x1202) 0x90 PGS spa (Spanish) 793,293 51 5 055 801 28 993
00011.M2TS 4611 (0x1203) 0x90 PGS fra (French) 793,293 56 5 565 855 31 777
00011.M2TS 4612 (0x1204) 0x90 PGS ita (Italian) 793,293 56 5 514 719 31 490
00011.M2TS 4613 (0x1205) 0x90 PGS nld (Dutch) 793,293 55 5 493 722 31 379
<---- END FORUMS PASTE ---->

QUICK SUMMARY:

Disc Title: CARO_INCONCERTBBC_HDGEEK
Disc Size: 30 249 052 659 bytes
Protection: AACS
BD-Java: No
Playlist: 00013.MPLS
Size: 3 331 534 848 bytes
Length: 0:13:13.425
Total Bitrate: 33,59 Mbps
Video: MPEG-4 AVC Video / 29999 kbps / 1080i / 29,970 fps / 16:9 / High Profile 4.1
Audio: English / LPCM Audio / 2.0 / 48 kHz / 1536 kbps / 16-bit
Subtitle: English / 58,108 kbps
Subtitle: German / 58,466 kbps
Subtitle: Spanish / 50,977 kbps
Subtitle: French / 56,120 kbps
Subtitle: Italian / 55,604 kbps
Subtitle: Dutch / 55,392 kbps

********************
PLAYLIST: 00007.MPLS
********************

<--- BEGIN FORUMS PASTE --->
Код:
Total Video
Title Codec Length Movie Size Disc Size Bitrate Bitrate Main Audio Track Secondary Audio Track
----- ------ ------- -------------- -------------- ------- ------- ------------------ ---------------------
00007.MPLS AVC 0:03:34 973 996 032 30 249 052 659 36,40 29,99 LPCM 2.0 1536Kbps (48kHz/16-bit) DTS-HD Master 5.1 2819Kbps (48kHz/16-bit)
Код:
DISC INFO:

Disc Title: CARO_INCONCERTBBC_HDGEEK
Disc Size: 30 249 052 659 bytes
Protection: AACS
BD-Java: No
BDInfo: 0.5.8

PLAYLIST REPORT:

Name: 00007.MPLS
Length: 0:03:34.080 (h:m:s.ms)
Size: 973 996 032 bytes
Total Bitrate: 36,40 Mbps

VIDEO:

Codec Bitrate Description
----- ------- -----------
MPEG-4 AVC Video 29989 kbps 1080i / 29,970 fps / 16:9 / High Profile 4.1

AUDIO:

Codec Language Bitrate Description
----- -------- ------- -----------
LPCM Audio English 1536 kbps 2.0 / 48 kHz / 1536 kbps / 16-bit
DTS-HD Master Audio English 2819 kbps 5.1 / 48 kHz / 2819 kbps / 16-bit (DTS Core: 5.1 / 48 kHz / 1509 kbps / 16-bit)

FILES:

Name Time In Length Size Total Bitrate
---- ------- ------ ---- -------------
00010.M2TS 0:00:00.000 0:03:34.080 973 996 032 36 397

CHAPTERS:

Number Time In Length Avg Video Rate Max 1-Sec Rate Max 1-Sec Time Max 5-Sec Rate Max 5-Sec Time Max 10Sec Rate Max 10Sec Time Avg Frame Size Max Frame Size Max Frame Time
------ ------- ------ -------------- -------------- -------------- -------------- -------------- -------------- -------------- -------------- -------------- --------------
1 0:00:00.000 0:03:34.080 29 989 kbps 34 707 kbps 00:00:19.386 33 075 kbps 00:03:08.021 32 844 kbps 00:00:37.370 125 078 bytes 355 693 bytes 00:00:40.073

STREAM DIAGNOSTICS:

File PID Type Codec Language Seconds Bitrate Bytes Packets
---- --- ---- ----- -------- -------------- -------------- ------------- -----
00010.M2TS 4113 (0x1011) 0x1B AVC 213,947 30 007 802 498 872 4 365 149
00010.M2TS 4352 (0x1100) 0x80 LPCM eng (English) 213,947 1 543 41 275 588 256 902
00010.M2TS 4353 (0x1101) 0x86 DTS-HD MA eng (English) 213,947 2 821 75 431 364 443 619
<---- END FORUMS PASTE ---->

QUICK SUMMARY:

Disc Title: CARO_INCONCERTBBC_HDGEEK
Disc Size: 30 249 052 659 bytes
Protection: AACS
BD-Java: No
Playlist: 00007.MPLS
Size: 973 996 032 bytes
Length: 0:03:34.080
Total Bitrate: 36,40 Mbps
Video: MPEG-4 AVC Video / 29989 kbps / 1080i / 29,970 fps / 16:9 / High Profile 4.1
Audio: English / LPCM Audio / 2.0 / 48 kHz / 1536 kbps / 16-bit
Audio: English / DTS-HD Master Audio / 5.1 / 48 kHz / 2819 kbps / 16-bit (DTS Core: 5.1 / 48 kHz / 1509 kbps / 16-bit)

********************
PLAYLIST: 00012.MPLS
********************

<--- BEGIN FORUMS PASTE --->
Код:
Total Video
Title Codec Length Movie Size Disc Size Bitrate Bitrate Main Audio Track Secondary Audio Track
----- ------ ------- -------------- -------------- ------- ------- ------------------ ---------------------
00012.MPLS AVC 0:03:34 973 996 032 30 249 052 659 36,40 29,99 LPCM 2.0 1536Kbps (48kHz/16-bit) DTS-HD Master 5.1 2819Kbps (48kHz/16-bit)
Код:
DISC INFO:

Disc Title: CARO_INCONCERTBBC_HDGEEK
Disc Size: 30 249 052 659 bytes
Protection: AACS
BD-Java: No
BDInfo: 0.5.8

PLAYLIST REPORT:

Name: 00012.MPLS
Length: 0:03:34.080 (h:m:s.ms)
Size: 973 996 032 bytes
Total Bitrate: 36,40 Mbps

VIDEO:

Codec Bitrate Description
----- ------- -----------
MPEG-4 AVC Video 29989 kbps 1080i / 29,970 fps / 16:9 / High Profile 4.1

AUDIO:

Codec Language Bitrate Description
----- -------- ------- -----------
LPCM Audio English 1536 kbps 2.0 / 48 kHz / 1536 kbps / 16-bit
DTS-HD Master Audio English 2819 kbps 5.1 / 48 kHz / 2819 kbps / 16-bit (DTS Core: 5.1 / 48 kHz / 1509 kbps / 16-bit)

FILES:

Name Time In Length Size Total Bitrate
---- ------- ------ ---- -------------
00010.M2TS 0:00:00.000 0:03:34.080 973 996 032 36 397

CHAPTERS:

Number Time In Length Avg Video Rate Max 1-Sec Rate Max 1-Sec Time Max 5-Sec Rate Max 5-Sec Time Max 10Sec Rate Max 10Sec Time Avg Frame Size Max Frame Size Max Frame Time
------ ------- ------ -------------- -------------- -------------- -------------- -------------- -------------- -------------- -------------- -------------- --------------
1 0:00:00.000 0:03:34.080 29 989 kbps 34 707 kbps 00:00:19.386 33 075 kbps 00:03:08.021 32 844 kbps 00:00:37.370 125 078 bytes 355 693 bytes 00:00:40.073

STREAM DIAGNOSTICS:

File PID Type Codec Language Seconds Bitrate Bytes Packets
---- --- ---- ----- -------- -------------- -------------- ------------- -----
00010.M2TS 4113 (0x1011) 0x1B AVC 213,947 30 007 802 498 872 4 365 149
00010.M2TS 4352 (0x1100) 0x80 LPCM eng (English) 213,947 1 543 41 275 588 256 902
00010.M2TS 4353 (0x1101) 0x86 DTS-HD MA eng (English) 213,947 2 821 75 431 364 443 619
<---- END FORUMS PASTE ---->

QUICK SUMMARY:

Disc Title: CARO_INCONCERTBBC_HDGEEK
Disc Size: 30 249 052 659 bytes
Protection: AACS
BD-Java: No
Playlist: 00012.MPLS
Size: 973 996 032 bytes
Length: 0:03:34.080
Total Bitrate: 36,40 Mbps
Video: MPEG-4 AVC Video / 29989 kbps / 1080i / 29,970 fps / 16:9 / High Profile 4.1
Audio: English / LPCM Audio / 2.0 / 48 kHz / 1536 kbps / 16-bit
Audio: English / DTS-HD Master Audio / 5.1 / 48 kHz / 2819 kbps / 16-bit (DTS Core: 5.1 / 48 kHz / 1509 kbps / 16-bit)

********************
PLAYLIST: 00006.MPLS
********************

<--- BEGIN FORUMS PASTE --->
Код:
Total Video
Title Codec Length Movie Size Disc Size Bitrate Bitrate Main Audio Track Secondary Audio Track
----- ------ ------- -------------- -------------- ------- ------- ------------------ ---------------------
00006.MPLS AVC 0:03:17 898 031 616 30 249 052 659 36,34 29,99 LPCM 2.0 1536Kbps (48kHz/16-bit) DTS-HD Master 5.1 2771Kbps (48kHz/16-bit)
Код:
DISC INFO:

Disc Title: CARO_INCONCERTBBC_HDGEEK
Disc Size: 30 249 052 659 bytes
Protection: AACS
BD-Java: No
BDInfo: 0.5.8

PLAYLIST REPORT:

Name: 00006.MPLS
Length: 0:03:17.697 (h:m:s.ms)
Size: 898 031 616 bytes
Total Bitrate: 36,34 Mbps

VIDEO:

Codec Bitrate Description
----- ------- -----------
MPEG-4 AVC Video 29987 kbps 1080i / 29,970 fps / 16:9 / High Profile 4.1

AUDIO:

Codec Language Bitrate Description
----- -------- ------- -----------
LPCM Audio English 1536 kbps 2.0 / 48 kHz / 1536 kbps / 16-bit
DTS-HD Master Audio English 2771 kbps 5.1 / 48 kHz / 2771 kbps / 16-bit (DTS Core: 5.1 / 48 kHz / 1509 kbps / 16-bit)

FILES:

Name Time In Length Size Total Bitrate
---- ------- ------ ---- -------------
00009.M2TS 0:00:00.000 0:03:17.697 898 031 616 36 340

CHAPTERS:

Number Time In Length Avg Video Rate Max 1-Sec Rate Max 1-Sec Time Max 5-Sec Rate Max 5-Sec Time Max 10Sec Rate Max 10Sec Time Avg Frame Size Max Frame Size Max Frame Time
------ ------- ------ -------------- -------------- -------------- -------------- -------------- -------------- -------------- -------------- -------------- --------------
1 0:00:00.000 0:03:17.697 29 987 kbps 35 200 kbps 00:03:09.556 33 085 kbps 00:01:54.814 32 900 kbps 00:00:23.857 125 073 bytes 335 928 bytes 00:01:34.661

STREAM DIAGNOSTICS:

File PID Type Codec Language Seconds Bitrate Bytes Packets
---- --- ---- ----- -------- -------------- -------------- ------------- -----
00009.M2TS 4113 (0x1011) 0x1B AVC 197,564 30 008 741 056 635 4 030 887
00009.M2TS 4352 (0x1100) 0x80 LPCM eng (English) 197,564 1 543 38 116 560 237 240
00009.M2TS 4353 (0x1101) 0x86 DTS-HD MA eng (English) 197,564 2 773 68 478 276 402 452
<---- END FORUMS PASTE ---->

QUICK SUMMARY:

Disc Title: CARO_INCONCERTBBC_HDGEEK
Disc Size: 30 249 052 659 bytes
Protection: AACS
BD-Java: No
Playlist: 00006.MPLS
Size: 898 031 616 bytes
Length: 0:03:17.697
Total Bitrate: 36,34 Mbps
Video: MPEG-4 AVC Video / 29987 kbps / 1080i / 29,970 fps / 16:9 / High Profile 4.1
Audio: English / LPCM Audio / 2.0 / 48 kHz / 1536 kbps / 16-bit
Audio: English / DTS-HD Master Audio / 5.1 / 48 kHz / 2771 kbps / 16-bit (DTS Core: 5.1 / 48 kHz / 1509 kbps / 16-bit)

********************
PLAYLIST: 00011.MPLS
********************

<--- BEGIN FORUMS PASTE --->
Код:
Total Video
Title Codec Length Movie Size Disc Size Bitrate Bitrate Main Audio Track Secondary Audio Track
----- ------ ------- -------------- -------------- ------- ------- ------------------ ---------------------
00011.MPLS AVC 0:03:17 898 031 616 30 249 052 659 36,34 29,99 LPCM 2.0 1536Kbps (48kHz/16-bit) DTS-HD Master 5.1 2771Kbps (48kHz/16-bit)
Код:
DISC INFO:

Disc Title: CARO_INCONCERTBBC_HDGEEK
Disc Size: 30 249 052 659 bytes
Protection: AACS
BD-Java: No
BDInfo: 0.5.8

PLAYLIST REPORT:

Name: 00011.MPLS
Length: 0:03:17.697 (h:m:s.ms)
Size: 898 031 616 bytes
Total Bitrate: 36,34 Mbps

VIDEO:

Codec Bitrate Description
----- ------- -----------
MPEG-4 AVC Video 29987 kbps 1080i / 29,970 fps / 16:9 / High Profile 4.1

AUDIO:

Codec Language Bitrate Description
----- -------- ------- -----------
LPCM Audio English 1536 kbps 2.0 / 48 kHz / 1536 kbps / 16-bit
DTS-HD Master Audio English 2771 kbps 5.1 / 48 kHz / 2771 kbps / 16-bit (DTS Core: 5.1 / 48 kHz / 1509 kbps / 16-bit)

FILES:

Name Time In Length Size Total Bitrate
---- ------- ------ ---- -------------
00009.M2TS 0:00:00.000 0:03:17.697 898 031 616 36 340

CHAPTERS:

Number Time In Length Avg Video Rate Max 1-Sec Rate Max 1-Sec Time Max 5-Sec Rate Max 5-Sec Time Max 10Sec Rate Max 10Sec Time Avg Frame Size Max Frame Size Max Frame Time
------ ------- ------ -------------- -------------- -------------- -------------- -------------- -------------- -------------- -------------- -------------- --------------
1 0:00:00.000 0:03:17.697 29 987 kbps 35 200 kbps 00:03:09.556 33 085 kbps 00:01:54.814 32 900 kbps 00:00:23.857 125 073 bytes 335 928 bytes 00:01:34.661

STREAM DIAGNOSTICS:

File PID Type Codec Language Seconds Bitrate Bytes Packets
---- --- ---- ----- -------- -------------- -------------- ------------- -----
00009.M2TS 4113 (0x1011) 0x1B AVC 197,564 30 008 741 056 635 4 030 887
00009.M2TS 4352 (0x1100) 0x80 LPCM eng (English) 197,564 1 543 38 116 560 237 240
00009.M2TS 4353 (0x1101) 0x86 DTS-HD MA eng (English) 197,564 2 773 68 478 276 402 452
<---- END FORUMS PASTE ---->

QUICK SUMMARY:

Disc Title: CARO_INCONCERTBBC_HDGEEK
Disc Size: 30 249 052 659 bytes
Protection: AACS
BD-Java: No
Playlist: 00011.MPLS
Size: 898 031 616 bytes
Length: 0:03:17.697
Total Bitrate: 36,34 Mbps
Video: MPEG-4 AVC Video / 29987 kbps / 1080i / 29,970 fps / 16:9 / High Profile 4.1
Audio: English / LPCM Audio / 2.0 / 48 kHz / 1536 kbps / 16-bit
Audio: English / DTS-HD Master Audio / 5.1 / 48 kHz / 2771 kbps / 16-bit (DTS Core: 5.1 / 48 kHz / 1509 kbps / 16-bit)
Any questions - support@pro-jazz.com. Есть вопросы - support@pro-jazz.com
382
Нет комментариев. Ваш будет первым!