Вы используете незарегистрированную версию компонента "Вкладки"!

Поиск

2013 Kurt Elling Quintet - Jazz TM Festival [HDTV 1080p]

2013 Kurt Elling Quintet - Jazz TM Festival [HDTV 1080p]
Дата проведения концерта (записи):
6 июля 2013
Место проведения:
Jazz TM Festival, Timisoara, Roumanie
Время звучания:
01:01:40
Состав:
  • Kurt Elling - vocals
  • Laurence Hobgood - claviers
  • Clark Sommers - bass
  • John Mc Lean - guitar
  • Kendrick Scott - batterie
Описание:

Качество: HDTVRip 1080p
Контейнер: MPEG-4
Видео кодек: H.264
Аудио кодек: AAC
Видео: 1920x1080 (16:9), 25.00 fps, AVC,9066 Кбит, 0.174 bits/pixel
Аудио: 48.0 KHz, AAC-LC, 2 ch, stereo, ~128 Kbps VBR

Отчёт DVDInfo/MediaInfo/BDInfo
Полное имя : G:\DVD\Kurt Elling Quintet - JTMF (2013)\Kurt Elling Quintet - Jazz TM Festival 2013.mp4
Формат : MPEG-4
Профиль формата : Base Media / Version 2
Идентификатор кодека : mp42
Размер файла : 4,07 Гбайт
Продолжительность : 1 ч. 1 м.
Общий поток : 9454 Кбит/сек
Дата кодирования : UTC 2013-10-29 08:06:53
Дата пометки : UTC 2013-10-29 08:06:53

Видео
Идентификатор : 2
Формат : AVC
Формат/Информация : Advanced Video Codec
Профиль формата : Main@L4.0
Параметр CABAC формата : Да
Параметр ReFrames формата : 2 кадра
Идентификатор кодека : avc1
Идентификатор кодека/Информация : Advanced Video Coding
Продолжительность : 1 ч. 1 м.
Вид битрейта : Переменный
Битрейт : 9066 Кбит/сек
Максимальный битрейт : 9001 Кбит/сек
Ширина : 1920 пикселей
Высота : 1088 пикселей
Высота оригинала : 1080 пикселей
Соотношение сторон : 16:9
Соотношение сторон в оригинале : 16:9
Режим частоты кадров : Постоянный
Частота кадров : 25,000 кадров/сек
Частота кадров в оригинале : 12,500 кадров/сек
Цветовое пространство : YUV
Субдискретизация насыщенности : 4:2:0
Битовая глубина : 8 бит
Тип развёртки : Прогрессивная
Бит/(Пиксели*Кадры) : 0.174
Размер потока : 3,90 Гбайт (96%)
Язык : English
Дата кодирования : UTC 2013-10-29 08:06:53
Дата пометки : UTC 2013-10-29 08:06:53

Аудио
Идентификатор : 1
Формат : AAC
Формат/Информация : Advanced Audio Codec
Профиль формата : LC
Идентификатор кодека : 40
Продолжительность : 1 ч. 1 м.
Вид битрейта : Постоянный
Битрейт : 384 Кбит/сек
Номинальный битрейт : 128 Кбит/сек
Каналы : 2 канала
Расположение каналов : Front: L R
Частота : 48,0 КГц
Метод сжатия : С потерями
Размер потока : 169 Мбайт (4%)
Язык : English
Дата кодирования : UTC 2013-10-29 08:06:53
Дата пометки : UTC 2013-10-29 08:06:53
Any questions - support@pro-jazz.com. Есть вопросы - support@pro-jazz.com
268
Нет комментариев. Ваш будет первым!