Вы используете незарегистрированную версию компонента "Вкладки"!

Поиск

2017 Donald Brown All Stars - Jazz en Tete [HDTV 1080i]

2017 Donald Brown All Stars - Jazz en Tete [HDTV 1080i]
Дата проведения концерта (записи):
27 октября 2017
Время звучания:
00:43:49
Главы (разбивка по трекам):
нет
Состав:
  • Donald Brown
  • Jean Toussaint
  • Eric Harland
  • Darryl Hall
  • Steve Nelson
  • Ed Cherry
Видео:
AVC,1920*1080p (16:9), 5169kbps, 25fps
Аудио#1:
MP3, 256kbps, 48kHz, 2ch
Отчёт DVDInfo/MediaInfo/BDInfo
Общее
Полное имя : \\Nasf8f4eb\1\D\Donald Brown\2017 Donald Brown All Stars - at Jazz en Tete [HDTV 1080i].mp4
Формат : MPEG-4
Профиль формата : Base Media
Идентификатор кодека : isom (isom/iso2/avc1/mp41)
Размер файла : 1,66 Гбайт
Продолжительность : 43 м. 49 с.
Общий поток : 5410 Кбит/сек
Программа кодирования : VideoReDo (Lavf57.71.100)

Видео
Идентификатор : 1
Формат : AVC
Формат/Информация : Advanced Video Codec
Профиль формата : High@L4
Настройки формата : CABAC / 4 Ref Frames
Параметр CABAC формата : Да
Параметр RefFrames формата : 4 кадра
Параметр GOP формата : M=4, N=28
Идентификатор кодека : avc1
Идентификатор кодека/Информация : Advanced Video Coding
Продолжительность : 43 м. 36 с.
Битрейт : 5169 Кбит/сек
Ширина : 1920 пикселей
Высота : 1080 пикселей
Соотношение сторон : 16:9
Режим частоты кадров : Постоянный
Частота кадров : 50,000 кадров/сек
Частота кадров в оригинале : 25,000 кадров/сек
Стандарт вещания : Component
Цветовое пространство : YUV
Субдискретизация насыщенности : 4:2:0
Битовая глубина : 8 бит
Тип развёртки : Чересстрочная
Метод сохранения типа развёртки : Раздельные поля
Порядок развёртки : Верхнее поле первое
Бит/(Пиксели*Кадры) : 0.050
Размер потока : 1,57 Гбайт (95%)
Цветовой диапазон : Limited
Основные цвета : BT.709
Характеристики трансфера : BT.709
Коэффициенты матрицы : BT.709
Menus : 3
Codec configuration box : avcC

Аудио
Идентификатор : 2
Формат : MPEG Audio
Версия формата : Version 1
Профиль формата : Layer 2
Идентификатор кодека : mp4a-6B
Продолжительность : 43 м. 36 с.
Duration_LastFrame : -24 мс.
Вид битрейта : Постоянный
Битрейт : 256 Кбит/сек
Каналы : 2 канала
Частота : 48,0 КГц
Метод сжатия : С потерями
Размер потока : 79,8 Мбайт (5%)
Язык : English
Default : Да
AlternateGroup/String : 1
Menus : 3

Меню #1
Идентификатор : 3
Идентификатор кодека : txet
Продолжительность : 43 м. 49 с.
Язык : English
Вид битрейта : CBR
Menu For : 1,2
Duration_LastFrame : -70080
Вид битрейта : Постоянный

Меню #2
00:00:00.000 : Chapter 1
00:05:00.000 : Chapter 2
00:10:00.000 : Chapter 3
00:15:00.000 : Chapter 4
00:20:00.000 : Chapter 5
00:25:00.000 : Chapter 6
00:30:00.000 : Chapter 7
00:35:00.000 : Chapter 8
00:40:00.000 : Chapter 9
Any questions - support@pro-jazz.com. Есть вопросы - support@pro-jazz.com
243
Нет комментариев. Ваш будет первым!