Вы используете незарегистрированную версию компонента "Вкладки"!

Поиск

2013 Dee Dee Bridgewater & Ramsey Lewis Band - Jazz Open Stuttgart [HDTV 720p]

2013 Dee Dee Bridgewater & Ramsey Lewis Band - Jazz Open Stuttgart [HDTV 720p]
Дата проведения концерта (записи):
7 июля 2013
Место проведения:
Ehrenhof des Neuen Schlosses
Время звучания:
00:58:14
Состав:
  • Dee Dee Bridgewater - vocals (1, 6-8)
  • Ramsey Lewis - piano (1-6)
  • Edsel Gomez - piano (7, 8)
  • Henry Johnson - guitar
  • Mike Logan - keyboards
  • Joshua Ramos - bass
  • Charles "Rick" Heath - drums
Описание:

Качество: HDTV 720p
Контейнер: TS
Видео кодек: H.264
Аудио кодек: AC3
Видео: 12.6 Mbps, 1280*720 (16:9), at 50.000 fps, AVC (High@L4.0) (CABAC / 6 Ref Frames)
Аудио: German, 256 Kbps, 48.0 KHz, 2 channels, MPEG Audio (Version 1) (Layer 2)
Аудио 2: 192 Kbps, 48.0 KHz, 2 channels, MPEG Audio (Version 1) (Layer 2)
Аудио 3: German, 448 Kbps, 48.0 KHz, 16 bits, 2 channels, AC-3
Аудио 4: Multiple languages, 192 Kbps, 48.0 KHz, 2 channels, MPEG Audio (Version 1) (Layer 2)

Дополнительная информация:

Dee Dee Bridgewater Official Site
Dee Dee Bridgewater from Wikipedia, the free encyclopedia
Ramsey Lewis Official Site
Ramsey Lewis from Wikipedia, the free encyclopedia
Henry Johnson Official Site
Henry Johnson from Wikipedia, the free encyclopedia
Charles "Rick" Heath Official Site

Отчёт DVDInfo/MediaInfo/BDInfo
General
ID : 1 (0x1)
Complete name : E:\rutracker.org_HD\3sat HD_Dee Dee Bridgewater & Ramsey Lewis Band - Jazz Open Stuttgart 2013.ts
Format : MPEG-TS
File size : 5.84 GiB
Duration : 58mn 14s
Overall bit rate : 14.4 Mbps

Video
ID : 6510 (0x196E)
Menu ID : 1 (0x1)
Format : AVC
Format/Info : Advanced Video Codec
Format profile : High@L4.0
Format settings, CABAC : Yes
Format settings, ReFrames : 6 frames
Codec ID : 27
Duration : 58mn 13s
Bit rate : 12.6 Mbps
Width : 1 280 pixels
Height : 720 pixels
Display aspect ratio : 16:9
Frame rate : 50.000 fps
Color space : YUV
Chroma subsampling : 4:2:0
Bit depth : 8 bits
Scan type : Progressive
Bits/(Pixel*Frame) : 0.273
Stream size : 5.11 GiB (87%)
Color primaries : BT.709-5, BT.1361, IEC 61966-2-4, SMPTE RP177
Transfer characteristics : BT.709-5, BT.1361
Matrix coefficients : BT.709-5, BT.1361, IEC 61966-2-4 709, SMPTE RP177

Audio #1
ID : 6520 (0x1978)
Menu ID : 1 (0x1)
Format : MPEG Audio
Format version : Version 1
Format profile : Layer 2
Codec ID : 3
Duration : 58mn 13s
Bit rate mode : Constant
Bit rate : 256 Kbps
Channel(s) : 2 channels
Sampling rate : 48.0 KHz
Compression mode : Lossy
Stream size : 107 MiB (2%)
Language : German

Audio #2
ID : 6521 (0x1979)
Menu ID : 1 (0x1)
Format : MPEG Audio
Format version : Version 1
Format profile : Layer 2
Codec ID : 3
Duration : 58mn 13s
Bit rate mode : Constant
Bit rate : 192 Kbps
Channel(s) : 2 channels
Sampling rate : 48.0 KHz
Compression mode : Lossy
Stream size : 80.0 MiB (1%)

Audio #3
ID : 6522 (0x197A)
Menu ID : 1 (0x1)
Format : AC-3
Format/Info : Audio Coding 3
Mode extension : CM (complete main)
Codec ID : 6
Duration : 58mn 13s
Bit rate mode : Constant
Bit rate : 448 Kbps
Channel(s) : 2 channels
Channel positions : Front: L R
Sampling rate : 48.0 KHz
Bit depth : 16 bits
Compression mode : Lossy
Stream size : 187 MiB (3%)
Language : German

Audio #4
ID : 6523 (0x197B)
Menu ID : 1 (0x1)
Format : MPEG Audio
Format version : Version 1
Format profile : Layer 2
Codec ID : 3
Duration : 58mn 13s
Bit rate mode : Constant
Bit rate : 192 Kbps
Channel(s) : 2 channels
Sampling rate : 48.0 KHz
Compression mode : Lossy
Stream size : 80.0 MiB (1%)
Language : Multiple languages
Any questions - support@pro-jazz.com. Есть вопросы - support@pro-jazz.com
301
Нет комментариев. Ваш будет первым!