Поиск

2017 Con Brio - Jazz A Vienne Fest [HDTV 1080p]

2017 Con Brio - Jazz A Vienne Fest [HDTV 1080p]
Время звучания:
01:24:23
Главы (разбивка по трекам):
нет
Состав:
  • Ezekiel McCarter (vcl)
  • Brendan Liu (tp)
  • Marcus Stephens (ts)
  • Benjamin Andrews (g)
  • Patrick Glynn (k)
  • Jonathan Kirchner (b)
  • Andrew Laubacher (dms)
Треклист:

01. Paradise
02. Money
03. Sundown
04. Liftoff
05. Open Close
06. All Over Me
07. Bonita
08. Texas Summer
09. United State Of Mind
10. Free And Brave
11. Kiss The Sun
12. Never Be The Same

Видео:
AVC,1920*1080i (16:9), 4345kbps, 25fps
Аудио#1:
AAC LC, 256kbps, 48kHz, 2ch
Отчёт DVDInfo/MediaInfo/BDInfo
Общее
Полное имя : \\2017 Con Brio - Jazz a Vienne [HDTV 1080p].mp4
Формат : MPEG-4
Профиль формата : Base Media
Идентификатор кодека : isom (isom/iso2/avc1/mp41)
Размер файла : 2,72 Гбайт
Продолжительность : 1 ч. 24 м.
Общий поток : 4606 Кбит/сек
HDVideo : Yes

Видео
Идентификатор : 1
Формат : AVC
Формат/Информация : Advanced Video Codec
Профиль формата : High@L4.1
Настройки формата : CABAC / 4 Ref Frames
Параметр CABAC формата : Да
Параметр RefFrames формата : 4 кадра
Идентификатор кодека : avc1
Идентификатор кодека/Информация : Advanced Video Coding
Продолжительность : 1 ч. 24 м.
Битрейт : 4345 Кбит/сек
Ширина : 1920 пикселей
Высота : 1080 пикселей
Соотношение сторон : 16:9
Режим частоты кадров : Постоянный
Частота кадров : 25,000 кадров/сек
Цветовое пространство : YUV
Субдискретизация насыщенности : 4:2:0
Битовая глубина : 8 бит
Тип развёртки : Прогрессивная
Бит/(Пиксели*Кадры) : 0.084
Размер потока : 2,56 Гбайт (94%)
Библиотека кодирования : x264 core 157 r2958 57baac4
Настройки программы : cabac=1 / ref=4 / deblock=1:-3:-3 / analyse=0x3:0x113 / me=hex / subme=7 / psy=1 / psy_rd=1.00:0.20 / mixed_ref=1 / me_range=16 / chroma_me=1 / trellis=1 / 8x8dct=1 / cqm=0 / deadzone=21,11 / fast_pskip=1 / chroma_qp_offset=-3 / threads=12 / lookahead_threads=2 / sliced_threads=0 / nr=0 / decimate=1 / interlaced=0 / bluray_compat=0 / constrained_intra=0 / bframes=3 / b_pyramid=2 / b_adapt=2 / b_bias=0 / direct=3 / weightb=1 / open_gop=0 / weightp=2 / keyint=250 / keyint_min=25 / scenecut=40 / intra_refresh=0 / rc_lookahead=40 / rc=2pass / mbtree=1 / bitrate=4345 / ratetol=1.0 / qcomp=0.60 / qpmin=0 / qpmax=69 / qpstep=4 / cplxblur=20.0 / qblur=0.5 / ip_ratio=1.40 / aq=1:1.00
Цветовой диапазон : Limited
Основные цвета : BT.709
Характеристики трансфера : BT.709
Коэффициенты матрицы : BT.709
Codec configuration box : avcC

Аудио
Идентификатор : 2
Формат : AAC LC
Формат/Информация : Advanced Audio Codec Low Complexity
Идентификатор кодека : mp4a-40-2
Продолжительность : 1 ч. 24 м.
Вид битрейта : Постоянный
Битрейт : 256 Кбит/сек
Каналы : 2 канала
ChannelLayout : L R
Частота : 48,0 КГц
Частота кадров : 46,875 кадров/сек (1024 SPF)
Метод сжатия : С потерями
Размер потока : 155 Мбайт (6%)
Язык : Russian
Default : Да
AlternateGroup/String : 1
Скриншоты видео
2017 Con Brio - Jazz A Vienne Fest [HDTV 1080p] 02017 Con Brio - Jazz A Vienne Fest [HDTV 1080p] 12017 Con Brio - Jazz A Vienne Fest [HDTV 1080p] 22017 Con Brio - Jazz A Vienne Fest [HDTV 1080p] 32017 Con Brio - Jazz A Vienne Fest [HDTV 1080p] 4
Download available for power users only.
555
Нет комментариев. Ваш будет первым!