Поиск

2011 Norah Jones - Front Row Center Series [HDTV 1080p]

2011 Norah Jones - Front Row Center Series [HDTV 1080p]
Время звучания:
00:52:33
Треклист:

01. I Wouldn't Need You
02. Tell Your Mama
03. Light As a Feather
04. Even Though
05. Young Blood
06. It's Gonna Be
07. December
08. Back To Manhattan
09. Sinkin' Soon
10. Come Away With Me
11. Strangers
12. Don't Know Why

Описание:

Качество: HDTVRip 1080p
Контейнер: MPEG-4
Видео кодек: H.264
Аудио кодек: AAC
Видео: 1920x1080 (16:9), 25.00 fps, AVC, 8848 Кбит, 0.169 bits/pixel
Аудио: 48.0 KHz, AAC-LC, 2 ch, stereo, ~128 Kbps VBR

Отчёт DVDInfo/MediaInfo/BDInfo
Полное имя : G:\DVD\Norah Jones - FRCS (2011)\Norah Jones - Front Row Center Series.mp4
Формат : MPEG-4
Профиль формата : Base Media / Version 2
Идентификатор кодека : mp42
Размер файла : 3,39 Гбайт
Продолжительность : 52 м.
Общий поток : 9236 Кбит/сек
Дата кодирования : UTC 2013-10-21 04:31:30
Дата пометки : UTC 2013-10-21 04:31:30

Видео
Идентификатор : 2
Формат : AVC
Формат/Информация : Advanced Video Codec
Профиль формата : Main@L4.0
Параметр CABAC формата : Да
Параметр ReFrames формата : 2 кадра
Идентификатор кодека : avc1
Идентификатор кодека/Информация : Advanced Video Coding
Продолжительность : 52 м.
Вид битрейта : Переменный
Битрейт : 8848 Кбит/сек
Максимальный битрейт : 9001 Кбит/сек
Ширина : 1920 пикселей
Высота : 1088 пикселей
Высота оригинала : 1080 пикселей
Соотношение сторон : 16:9
Соотношение сторон в оригинале : 16:9
Режим частоты кадров : Постоянный
Частота кадров : 25,000 кадров/сек
Частота кадров в оригинале : 12,500 кадров/сек
Цветовое пространство : YUV
Субдискретизация насыщенности : 4:2:0
Битовая глубина : 8 бит
Тип развёртки : Прогрессивная
Бит/(Пиксели*Кадры) : 0.169
Размер потока : 3,25 Гбайт (96%)
Язык : English
Дата кодирования : UTC 2013-10-21 04:31:30
Дата пометки : UTC 2013-10-21 04:31:30

Аудио
Идентификатор : 1
Формат : AAC
Формат/Информация : Advanced Audio Codec
Профиль формата : LC
Идентификатор кодека : 40
Продолжительность : 52 м.
Вид битрейта : Постоянный
Битрейт : 384 Кбит/сек
Номинальный битрейт : 128 Кбит/сек
Каналы : 2 канала
Расположение каналов : Front: L R
Частота : 48,0 КГц
Метод сжатия : С потерями
Размер потока : 144 Мбайт (4%)
Язык : English
Дата кодирования : UTC 2013-10-21 04:31:30
Дата пометки : UTC 2013-10-21 04:31:30
Скриншоты видео
2011 Norah Jones - Front Row Center Series [HDTV 1080p] 02011 Norah Jones - Front Row Center Series [HDTV 1080p] 12011 Norah Jones - Front Row Center Series [HDTV 1080p] 22011 Norah Jones - Front Row Center Series [HDTV 1080p] 32011 Norah Jones - Front Row Center Series [HDTV 1080p] 42011 Norah Jones - Front Row Center Series [HDTV 1080p] 52011 Norah Jones - Front Row Center Series [HDTV 1080p] 62011 Norah Jones - Front Row Center Series [HDTV 1080p] 72011 Norah Jones - Front Row Center Series [HDTV 1080p] 82011 Norah Jones - Front Row Center Series [HDTV 1080p] 92011 Norah Jones - Front Row Center Series [HDTV 1080p] 102011 Norah Jones - Front Row Center Series [HDTV 1080p] 11
Download available for power users only.
525
Нет комментариев. Ваш будет первым!