Поиск

2017 Emile Parisien, Vincent Peirany - Jazz A Vienne [HDTV 1080p]

2017 Emile Parisien, Vincent Peirany - Jazz A Vienne [HDTV 1080p]
Дата проведения концерта (записи):
4 июля 2017
Место проведения:
Jazz à Vienne
Время звучания:
00:59:19
Главы (разбивка по трекам):
нет
Состав:
  • Emile Parisien
  • Vincent Peirany
  • Paco Séry (d)
  • Linley Marthe (b)
  • Mino Cinelu (perc)
  • Aziz Samahoui, Tony Paeleman (b)
  • Manu Codjia (g)
Видео:
AVC,1920*1080i (16:9), 4657kbps, 25fps
Аудио#1:
AAC LC, 256kbps, 48kHz, 2ch
Отчёт DVDInfo/MediaInfo/BDInfo
Общее
Полное имя : \\2017 Emile Parisien, Vincent Peirany - Jazz A Vienne [HDTV 1080p]\2017 Emile Parisien, Vincent Peirany - Jazz A Vienne [HDTV 1080p].mp4
Формат : MPEG-4
Профиль формата : Base Media
Идентификатор кодека : isom (isom/iso2/avc1/mp41)
Размер файла : 2,04 Гбайт
Продолжительность : 59 м. 19 с.
Режим общего битрейта : Переменный
Общий поток : 4916 Кбит/сек
Программа кодирования : Lavf54.63.104

Видео
Идентификатор : 1
Формат : AVC
Формат/Информация : Advanced Video Codec
Профиль формата : High@L4.1
Настройки формата : CABAC / 3 Ref Frames
Параметр CABAC формата : Да
Параметр RefFrames формата : 3 кадра
Идентификатор кодека : avc1
Идентификатор кодека/Информация : Advanced Video Coding
Продолжительность : 59 м. 19 с.
Вид битрейта : Переменный
Битрейт : 4657 Кбит/сек
Максимальный битрейт : 9250 Кбит/сек
Ширина : 1920 пикселей
Высота : 1080 пикселей
Соотношение сторон : 16:9
Режим частоты кадров : Постоянный
Частота кадров : 25,000 кадров/сек
Стандарт вещания : PAL
Цветовое пространство : YUV
Субдискретизация насыщенности : 4:2:0
Битовая глубина : 8 бит
Тип развёртки : Прогрессивная
Бит/(Пиксели*Кадры) : 0.090
Размер потока : 1,93 Гбайт (95%)
Цветовой диапазон : Limited
Основные цвета : BT.709
Характеристики трансфера : BT.709
Коэффициенты матрицы : BT.709
Codec configuration box : avcC

Аудио
Идентификатор : 2
Формат : AAC LC
Формат/Информация : Advanced Audio Codec Low Complexity
Идентификатор кодека : mp4a-40-2
Продолжительность : 59 м. 19 с.
Duration_LastFrame : -21 мс.
Вид битрейта : Переменный
Битрейт : 253 Кбит/сек
Максимальный битрейт : 256 Кбит/сек
Каналы : 2 канала
ChannelLayout : L R
Частота : 48,0 КГц
Частота кадров : 46,875 кадров/сек (1024 SPF)
Метод сжатия : С потерями
Размер потока : 108 Мбайт (5%)
Язык : Russian
Default : Да
AlternateGroup/String : 1
Скриншоты видео
2017 Emile Parisien, Vincent Peirany - Jazz A Vienne [HDTV 1080p] 02017 Emile Parisien, Vincent Peirany - Jazz A Vienne [HDTV 1080p] 12017 Emile Parisien, Vincent Peirany - Jazz A Vienne [HDTV 1080p] 22017 Emile Parisien, Vincent Peirany - Jazz A Vienne [HDTV 1080p] 32017 Emile Parisien, Vincent Peirany - Jazz A Vienne [HDTV 1080p] 4
Download available for power users only.
459
Нет комментариев. Ваш будет первым!