Вы используете незарегистрированную версию компонента "Вкладки"!

Поиск

2008 Nasheet Waits, Eric McPherson, Abraham Burton - Live at The Knitting Factory [HDTV 1080p]

2008 Nasheet Waits, Eric McPherson, Abraham Burton - Live at The Knitting Factory [HDTV 1080p]
Дата проведения концерта (записи):
25 октября 2008
Место проведения:
The Knitting Factory
Время звучания:
00:49:23
Описание:

Качество: HDTVRip 1080p
Контейнер: MPEG-4
Видео кодек: H.264
Аудио кодек: AAC
Видео: 1920x1080 (16:9), 25.00 fps, AVC, MKV, 8900 Кбит, 0.170 bits/pixel
Аудио: 48.0 KHz, AC3, 2 ch, stereo, 256 Kbps

Отчёт DVDInfo/MediaInfo/BDInfo
Полное имя : G:\DVD\Nasheet Waits (2008)\Nasheet Waits - Live at The Knitting Factory.mp4
Формат : MPEG-4
Профиль формата : Base Media / Version 2
Идентификатор кодека : mp42
Размер файла : 3,19 Гбайт
Продолжительность : 49 м.
Общий поток : 9248 Кбит/сек
Дата кодирования : UTC 2013-10-18 04:58:21
Дата пометки : UTC 2013-10-18 04:58:21

Видео
Идентификатор : 2
Формат : AVC
Формат/Информация : Advanced Video Codec
Профиль формата : Main@L4.0
Параметр CABAC формата : Да
Параметр ReFrames формата : 2 кадра
Идентификатор кодека : avc1
Идентификатор кодека/Информация : Advanced Video Coding
Продолжительность : 49 м.
Вид битрейта : Переменный
Битрейт : 8860 Кбит/сек
Максимальный битрейт : 9001 Кбит/сек
Ширина : 1920 пикселей
Высота : 1088 пикселей
Высота оригинала : 1080 пикселей
Соотношение сторон : 16:9
Соотношение сторон в оригинале : 16:9
Режим частоты кадров : Постоянный
Частота кадров : 25,000 кадров/сек
Частота кадров в оригинале : 12,500 кадров/сек
Цветовое пространство : YUV
Субдискретизация насыщенности : 4:2:0
Битовая глубина : 8 бит
Тип развёртки : Прогрессивная
Бит/(Пиксели*Кадры) : 0.170
Размер потока : 3,06 Гбайт (96%)
Язык : English
Дата кодирования : UTC 2013-10-18 04:58:21
Дата пометки : UTC 2013-10-18 04:58:21

Аудио
Идентификатор : 1
Формат : AAC
Формат/Информация : Advanced Audio Codec
Профиль формата : LC
Идентификатор кодека : 40
Продолжительность : 49 м.
Вид битрейта : Постоянный
Битрейт : 384 Кбит/сек
Номинальный битрейт : 128 Кбит/сек
Каналы : 2 канала
Расположение каналов : Front: L R
Частота : 48,0 КГц
Метод сжатия : С потерями
Размер потока : 136 Мбайт (4%)
Язык : English
Дата кодирования : UTC 2013-10-18 04:58:21
Дата пометки : UTC 2013-10-18 04:58:21
Any questions - support@pro-jazz.com. Есть вопросы - support@pro-jazz.com
238
Нет комментариев. Ваш будет первым!