Вы используете незарегистрированную версию компонента "Вкладки"!

Поиск

2017 Chucho Valdes Quartet - Alfa Jazz Fest [HDTV 1080p]

2017 Chucho Valdes Quartet - Alfa Jazz Fest [HDTV 1080p]
Дата проведения концерта (записи):
25 июня 2017
Место проведения:
Alfa Jazz Fest, Lviv, Ukraine
Время звучания:
01:34:20
Главы (разбивка по трекам):
нет
Состав:
  • Chucho Valdés - Piano
  • Yelsy Heredia - bass
  • Georvis Pio Milian - drums
  • Pedro Pablo Rodriguez - percussion
Видео:
AVC,1920*1080p (16:9), 5839kbps, 25fps
Аудио#1:
AAC LC, 256kbps, 48kHz, 2ch
Отчёт DVDInfo/MediaInfo/BDInfo
Общее
Полное имя : \\Videos\HD\C\Chucho Valdes\2017 Chucho Valdes Quartet - Alfa Jazz Fest [HDTV 1080p]\2017 Chucho Valdes Quartet - Alfa Jazz Fest [HDTV 1080p].mp4
Формат : MPEG-4
Профиль формата : Base Media
Идентификатор кодека : isom (isom/iso2/avc1/mp41)
Размер файла : 4,02 Гбайт
Продолжительность : 1 ч. 34 м.
Режим общего битрейта : Переменный
Общий поток : 6099 Кбит/сек
Программа кодирования : Lavf54.63.104

Видео
Идентификатор : 1
Формат : AVC
Формат/Информация : Advanced Video Codec
Профиль формата : High@L4.1
Настройки формата : CABAC / 3 Ref Frames
Параметр CABAC формата : Да
Параметр RefFrames формата : 3 кадра
Идентификатор кодека : avc1
Идентификатор кодека/Информация : Advanced Video Coding
Продолжительность : 1 ч. 34 м.
Вид битрейта : Переменный
Битрейт : 5839 Кбит/сек
Максимальный битрейт : 11,6 Мбит/сек
Ширина : 1920 пикселей
Высота : 1080 пикселей
Соотношение сторон : 16:9
Режим частоты кадров : Постоянный
Частота кадров : 25,000 кадров/сек
Стандарт вещания : PAL
Цветовое пространство : YUV
Субдискретизация насыщенности : 4:2:0
Битовая глубина : 8 бит
Тип развёртки : Прогрессивная
Бит/(Пиксели*Кадры) : 0.113
Размер потока : 3,85 Гбайт (96%)
Цветовой диапазон : Limited
Основные цвета : BT.709
Характеристики трансфера : BT.709
Коэффициенты матрицы : BT.709
Codec configuration box : avcC

Аудио
Идентификатор : 2
Формат : AAC LC
Формат/Информация : Advanced Audio Codec Low Complexity
Идентификатор кодека : mp4a-40-2
Продолжительность : 1 ч. 34 м.
Duration_LastFrame : -21 мс.
Вид битрейта : Переменный
Битрейт : 253 Кбит/сек
Максимальный битрейт : 256 Кбит/сек
Каналы : 2 канала
ChannelLayout : L R
Частота : 48,0 КГц
Частота кадров : 46,875 кадров/сек (1024 SPF)
Метод сжатия : С потерями
Размер потока : 171 Мбайт (4%)
Язык : Russian
Default : Да
AlternateGroup/String : 1
Any questions - support@pro-jazz.com. Есть вопросы - support@pro-jazz.com
317
Нет комментариев. Ваш будет первым!