Поиск

2016 Erik Truffaz Quartet - Jazz Sous Les Pommiers [HDTV 1080p]

2016 Erik Truffaz Quartet - Jazz Sous Les Pommiers [HDTV 1080p]
Дата проведения концерта (записи):
5 мая 2016
Время звучания:
01:27:49
Главы (разбивка по трекам):
нет
Состав:
  • Erik Truffaz : trompette
  • Marcello Giuliani : basse
  • Arthur Hnatek : batterie
  • Benoît Corboz : claviers
Треклист:
  • 01. Kudu
  • 02. Fat City
  • 03. Szerelem
  • 04. Siegfried
  • 05. Pacheco
  • 06. The Walk Of The Giant Turtle
  • 07. Lulu
  • 08. Doni Doni
  • 09. Mr. K
  • 10. Lost In Bogota
Видео:
AVC,1920*1080p (16:9), 3582kbps, 25fps
Аудио#1:
AAC, 253-256kbps, 48kHz, 2ch
Отчёт DVDInfo/MediaInfo/BDInfo
Общее
Полное имя : \\2016 Erik Truffaz Quartet - Jazz Sous Les Pommiers [HDTV 1080i]\2016 Erik Truffaz Quartet - Jazz Sous Les Pommiers [HDTV 1080i].mp4
Формат : MPEG-4
Профиль формата : Base Media
Идентификатор кодека : isom (isom/iso2/avc1/mp41)
Размер файла : 2,36 Гбайт
Продолжительность : 1 ч. 27 м.
Режим общего битрейта : Переменный
Общий поток : 3841 Кбит/сек
Программа кодирования : Lavf54.63.104

Видео
Идентификатор : 1
Формат : AVC
Формат/Информация : Advanced Video Codec
Профиль формата : High@L4.1
Настройки формата : CABAC / 3 Ref Frames
Параметр CABAC формата : Да
Параметр RefFrames формата : 3 кадра
Идентификатор кодека : avc1
Идентификатор кодека/Информация : Advanced Video Coding
Продолжительность : 1 ч. 27 м.
Вид битрейта : Переменный
Битрейт : 3582 Кбит/сек
Максимальный битрейт : 8000 Кбит/сек
Ширина : 1920 пикселей
Высота : 1080 пикселей
Соотношение сторон : 16:9
Режим частоты кадров : Постоянный
Частота кадров : 25,000 кадров/сек
Стандарт вещания : PAL
Цветовое пространство : YUV
Субдискретизация насыщенности : 4:2:0
Битовая глубина : 8 бит
Тип развёртки : Прогрессивная
Бит/(Пиксели*Кадры) : 0.069
Размер потока : 2,20 Гбайт (93%)
Цветовой диапазон : Limited
Основные цвета : BT.709
Характеристики трансфера : BT.709
Коэффициенты матрицы : BT.709
Codec configuration box : avcC

Аудио
Идентификатор : 2
Формат : AAC LC
Формат/Информация : Advanced Audio Codec Low Complexity
Идентификатор кодека : mp4a-40-2
Продолжительность : 1 ч. 27 м.
Duration_LastFrame : -21 мс.
Вид битрейта : Переменный
Битрейт : 253 Кбит/сек
Максимальный битрейт : 256 Кбит/сек
Каналы : 2 канала
ChannelLayout : L R
Частота : 48,0 КГц
Частота кадров : 46,875 кадров/сек (1024 SPF)
Метод сжатия : С потерями
Размер потока : 159 Мбайт (7%)
Язык : Russian
Default : Да
AlternateGroup/String : 1
Скриншоты видео
2016 Erik Truffaz Quartet - Jazz Sous Les Pommiers [HDTV 1080p] 02016 Erik Truffaz Quartet - Jazz Sous Les Pommiers [HDTV 1080p] 12016 Erik Truffaz Quartet - Jazz Sous Les Pommiers [HDTV 1080p] 22016 Erik Truffaz Quartet - Jazz Sous Les Pommiers [HDTV 1080p] 32016 Erik Truffaz Quartet - Jazz Sous Les Pommiers [HDTV 1080p] 4
По всем вопросам пишите личное сообщение пользователю M0p94ok.
482
Нет комментариев. Ваш будет первым!