Поиск

2012 Rudresh Mahanthappa's Samdhi - Festival Nancy Jazz Pulsations [HDTV 1080p]

2012 Rudresh Mahanthappa's Samdhi - Festival Nancy Jazz Pulsations [HDTV 1080p]
Место проведения:
Nancy Jazz Pulsations Festival
Время звучания:
00:59:36
Состав:
  • Rudresh Mahanthappa: Saxophone Alto
  • David Gilmore: Guitare
  • Rich Brown: Basse
  • Gene Lake: Batterie
Треклист:

1. Parakram #1
2. Killer
3. Playing With Stones
4. For My Lady
5. For All The Ladies
6. Blackjack
7. Breakfastlunshanddinner

Описание:

Качество: HDTVRip 1080p
Контейнер: MPEG-4
Видео кодек: H.264
Аудио кодек: AAC
Видео: 1920x1080 (16:9), 25.00 fps, AVC, 9088 Кбит, 0.174 bits/pixel
Аудио: 48.0 KHz, AAC-LC, 2 ch, 128 Kbps VBR

Отчёт DVDInfo/MediaInfo/BDInfo
Полное имя : G:\DVD\Rudresh Mahanthappa (2012)\Rudresh Mahanthappa's Samdhi - Festival Nancy.mp4
Формат : MPEG-4
Профиль формата : Base Media / Version 2
Идентификатор кодека : mp42
Размер файла : 3,95 Гбайт
Продолжительность : 59 м.
Общий поток : 9475 Кбит/сек
Дата кодирования : UTC 2013-10-15 07:00:23
Дата пометки : UTC 2013-10-15 07:00:23

Видео
Идентификатор : 2
Формат : AVC
Формат/Информация : Advanced Video Codec
Профиль формата : Main@L4.0
Параметр CABAC формата : Да
Параметр ReFrames формата : 2 кадра
Идентификатор кодека : avc1
Идентификатор кодека/Информация : Advanced Video Coding
Продолжительность : 59 м.
Вид битрейта : Переменный
Битрейт : 9088 Кбит/сек
Максимальный битрейт : 9001 Кбит/сек
Ширина : 1920 пикселей
Высота : 1088 пикселей
Высота оригинала : 1080 пикселей
Соотношение сторон : 16:9
Соотношение сторон в оригинале : 16:9
Режим частоты кадров : Постоянный
Частота кадров : 25,000 кадров/сек
Частота кадров в оригинале : 12,500 кадров/сек
Цветовое пространство : YUV
Субдискретизация насыщенности : 4:2:0
Битовая глубина : 8 бит
Тип развёртки : Прогрессивная
Бит/(Пиксели*Кадры) : 0.174
Размер потока : 3,78 Гбайт (96%)
Язык : English
Дата кодирования : UTC 2013-10-15 07:00:23
Дата пометки : UTC 2013-10-15 07:00:23

Аудио
Идентификатор : 1
Формат : AAC
Формат/Информация : Advanced Audio Codec
Профиль формата : LC
Идентификатор кодека : 40
Продолжительность : 59 м.
Вид битрейта : Постоянный
Битрейт : 384 Кбит/сек
Номинальный битрейт : 128 Кбит/сек
Каналы : 2 канала
Расположение каналов : Front: L R
Частота : 48,0 КГц
Метод сжатия : С потерями
Размер потока : 164 Мбайт (4%)
Язык : English
Дата кодирования : UTC 2013-10-15 07:00:23
Дата пометки : UTC 2013-10-15 07:00:23
Скриншоты видео
2012 Rudresh Mahanthappa's Samdhi - Festival Nancy Jazz Pulsations [HDTV 1080p] 02012 Rudresh Mahanthappa's Samdhi - Festival Nancy Jazz Pulsations [HDTV 1080p] 12012 Rudresh Mahanthappa's Samdhi - Festival Nancy Jazz Pulsations [HDTV 1080p] 22012 Rudresh Mahanthappa's Samdhi - Festival Nancy Jazz Pulsations [HDTV 1080p] 32012 Rudresh Mahanthappa's Samdhi - Festival Nancy Jazz Pulsations [HDTV 1080p] 42012 Rudresh Mahanthappa's Samdhi - Festival Nancy Jazz Pulsations [HDTV 1080p] 52012 Rudresh Mahanthappa's Samdhi - Festival Nancy Jazz Pulsations [HDTV 1080p] 62012 Rudresh Mahanthappa's Samdhi - Festival Nancy Jazz Pulsations [HDTV 1080p] 72012 Rudresh Mahanthappa's Samdhi - Festival Nancy Jazz Pulsations [HDTV 1080p] 82012 Rudresh Mahanthappa's Samdhi - Festival Nancy Jazz Pulsations [HDTV 1080p] 92012 Rudresh Mahanthappa's Samdhi - Festival Nancy Jazz Pulsations [HDTV 1080p] 102012 Rudresh Mahanthappa's Samdhi - Festival Nancy Jazz Pulsations [HDTV 1080p] 11
Download available for power users only.
585
Нет комментариев. Ваш будет первым!