Поиск

2018 Joao Bosco & Hamilton De Holanda - Concert at Montreux Jazz Club [SD]

2018 Joao Bosco & Hamilton De Holanda - Concert at Montreux Jazz Club [SD]
Место проведения:
Montreux Jazz Club
Время звучания:
01:22:44
Главы (разбивка по трекам):
нет
Качество:
BDRip
Контейнер:
BDAV
Состав:
  • Joao Bosco
  • Hamilton De Holanda
Видео:
AVC,704*576p (16:9), 954kbps, 25fps
Аудио#1:
AAC, 256kbps, 48kHz, 2ch
Источник:
собственный рип
Отчёт DVDInfo/MediaInfo/BDInfo
Общее
Полное имя : \\NASF8F4EB\Videos\Video\J\Joao Bosco\2018 Joao Bosco & Hamilton De Holanda - Concert at Montreux Jazz Club [SD]\2018 Joao Bosco & Hamilton De Holanda - Concert at Montreux Jazz Club [SD].mp4
Формат : MPEG-4
Профиль формата : Base Media
Идентификатор кодека : isom (isom/iso2/avc1/mp41)
Размер файла : 718 Мбайт
Продолжительность : 1 ч. 22 м.
Режим общего битрейта : Переменный
Общий поток : 1214 Кбит/сек
Программа кодирования : Lavf54.63.104

Видео
Идентификатор : 1
Формат : AVC
Формат/Информация : Advanced Video Codec
Профиль формата : Main@L3
Настройки формата : CABAC / 3 Ref Frames
Параметр CABAC формата : Да
Параметр RefFrames формата : 3 кадра
Идентификатор кодека : avc1
Идентификатор кодека/Информация : Advanced Video Coding
Продолжительность : 1 ч. 22 м.
Вид битрейта : Переменный
Битрейт : 954 Кбит/сек
Максимальный битрейт : 1900 Кбит/сек
Ширина : 704 пикселя
Высота : 576 пикселей
Соотношение сторон : 16:9
Соотношение сторон в оригинале : 16:9
Режим частоты кадров : Постоянный
Частота кадров : 25,000 кадров/сек
Стандарт вещания : PAL
Цветовое пространство : YUV
Субдискретизация насыщенности : 4:2:0
Битовая глубина : 8 бит
Тип развёртки : Прогрессивная
Бит/(Пиксели*Кадры) : 0.094
Размер потока : 565 Мбайт (79%)
Цветовой диапазон : Limited
Codec configuration box : avcC

Аудио
Идентификатор : 2
Формат : AAC LC
Формат/Информация : Advanced Audio Codec Low Complexity
Идентификатор кодека : mp4a-40-2
Продолжительность : 1 ч. 22 м.
Duration_LastFrame : -21 мс.
Вид битрейта : Переменный
Битрейт : 253 Кбит/сек
Максимальный битрейт : 256 Кбит/сек
Каналы : 2 канала
ChannelLayout : L R
Частота : 48,0 КГц
Частота кадров : 46,875 кадров/сек (1024 SPF)
Метод сжатия : С потерями
Размер потока : 150 Мбайт (21%)
Язык : French
Default : Да
AlternateGroup/String : 1
Скриншоты видео
2018 Joao Bosco & Hamilton De Holanda - Concert at Montreux Jazz Club [SD] 02018 Joao Bosco & Hamilton De Holanda - Concert at Montreux Jazz Club [SD] 12018 Joao Bosco & Hamilton De Holanda - Concert at Montreux Jazz Club [SD] 22018 Joao Bosco & Hamilton De Holanda - Concert at Montreux Jazz Club [SD] 32018 Joao Bosco & Hamilton De Holanda - Concert at Montreux Jazz Club [SD] 4
Download available for power users only.
664
Нет комментариев. Ваш будет первым!