Вы используете незарегистрированную версию компонента "Вкладки"!

Поиск

1969 Ella Fitzgerald - Live at Montreux [HDTV 1080p]

1969 Ella Fitzgerald - Live at Montreux [HDTV 1080p]
Дата проведения концерта (записи):
22 июня 1969
Место проведения:
Montreux
Время звучания:
01:06:21
Состав:
Описание:

Качество: HDTVRip 1080p
Контейнер: MPEG-4
Видео кодек: H.264
Аудио кодек: AAC
Видео: 1920x1080 (16:9), 25.00 fps, AVC, 8888 Кбит, 0.170 bits/pixel
Аудио: 48.0 KHz, AAC-LC, 2 ch, 128 Kbps VBR

Отчёт DVDInfo/MediaInfo/BDInfo
Полное имя : G:\DVD\Ella Fitzgerald - Live at Montreux (1969)\Ella Fitzgerald - Live at Montreux.mp4
Формат : MPEG-4
Профиль формата : Base Media / Version 2
Идентификатор кодека : mp42
Размер файла : 4,30 Гбайт
Продолжительность : 1 ч. 6 м.
Общий поток : 9275 Кбит/сек
Дата кодирования : UTC 2013-10-06 05:05:54
Дата пометки : UTC 2013-10-06 05:05:54

Видео
Идентификатор : 2
Формат : AVC
Формат/Информация : Advanced Video Codec
Профиль формата : Main@L4.0
Параметр CABAC формата : Да
Параметр ReFrames формата : 2 кадра
Идентификатор кодека : avc1
Идентификатор кодека/Информация : Advanced Video Coding
Продолжительность : 1 ч. 6 м.
Вид битрейта : Переменный
Битрейт : 8888 Кбит/сек
Максимальный битрейт : 9001 Кбит/сек
Ширина : 1920 пикселей
Высота : 1088 пикселей
Высота оригинала : 1080 пикселей
Соотношение сторон : 16:9
Соотношение сторон в оригинале : 16:9
Режим частоты кадров : Постоянный
Частота кадров : 25,000 кадров/сек
Частота кадров в оригинале : 12,500 кадров/сек
Цветовое пространство : YUV
Субдискретизация насыщенности : 4:2:0
Битовая глубина : 8 бит
Тип развёртки : Прогрессивная
Бит/(Пиксели*Кадры) : 0.170
Размер потока : 4,12 Гбайт (96%)
Язык : English
Дата кодирования : UTC 2013-10-06 05:05:54
Дата пометки : UTC 2013-10-06 05:05:54

Аудио
Идентификатор : 1
Формат : AAC
Формат/Информация : Advanced Audio Codec
Профиль формата : LC
Идентификатор кодека : 40
Продолжительность : 1 ч. 6 м.
Вид битрейта : Постоянный
Битрейт : 384 Кбит/сек
Номинальный битрейт : 128 Кбит/сек
Каналы : 2 канала
Расположение каналов : Front: L R
Частота : 48,0 КГц
Метод сжатия : С потерями
Размер потока : 182 Мбайт (4%)
Язык : English
Дата кодирования : UTC 2013-10-06 05:05:54
Дата пометки : UTC 2013-10-06 05:05:54
Any questions - support@pro-jazz.com. Есть вопросы - support@pro-jazz.com
268
Нет комментариев. Ваш будет первым!