Поиск

2004 Henri Guedon - Live at The New Morning [HDTV 1080p]

2004 Henri Guedon - Live at The New Morning [HDTV 1080p]
Стили:
Дата проведения концерта (записи):
15 октября 2004
Место проведения:
The New Morning Club, Paris
Время звучания:
00:57:00
Состав:
  • Henri Guedon (voix, bongos)
  • Abraham Rodriguez Mansfaroll (congas, bata)
  • Felix Toca Ibanez (basse)
  • Lukmil Perez Herrera (timbales)
  • Eddy Borges (trombone)
  • Gilbert Anastase (voix)
  • David Rothschild (trombone)
  • Christophe Erbstosser (piano)
  • Mickael Joussin (trombone)
  • Jean-Marie Alain (piano)
  • Cuchi Almedia Gonzales (basse)
  • Roland Malmin (piano)
  • Fred Savinien (percussions)
  • Claude Valmur (timbales, percussions)
Треклист:

01. Latin Alley
02. Bilongo
03. La Piye
04. Cinturita
05. Marlon Brando
06. A Las Seis
07. Beni More

Описание:

Качество: HDTV 1080p
Контейнер:MPEG-4
Видео кодек: H.264
Аудио кодек: AAC
Видео: 1920x1080 (16:9), 25.00 fps, AVC, 11.1 Мбит, 0.213 bits/pixel
Аудио: 48.0 KHz, AAC-LC, 2 ch, stereo, 128-384 Kbps VBR

Отчёт DVDInfo/MediaInfo/BDInfo
Полное имя : C:\Users\Валера\Videos\MY MUSIC3\Henri Guedon - LaTNM (2004)\Henri Guedon - Live at The New Morning (Live in Paris) 2004.mp4
Формат : MPEG-4
Профиль формата : Base Media / Version 2
Идентификатор кодека : mp42
Размер файла : 4,78 Гбайт
Продолжительность : 57 м.
Режим общего битрейта : Переменный
Общий поток : 12,0 Мбит/сек
Дата кодирования : UTC 2014-06-25 08:28:35
Дата пометки : UTC 2014-06-25 08:28:35
Видео
Идентификатор : 2
Формат : AVC
Формат/Информация : Advanced Video Codec
Профиль формата : Main@L4.0
Параметр CABAC формата : Да
Параметр ReFrames формата : 2 кадра
Параметр GOP формата : M=3, N=30
Идентификатор кодека : avc1
Идентификатор кодека/Информация : Advanced Video Coding
Продолжительность : 57 м.
Продолжительность оригинала : 57 м.
Вид битрейта : Переменный
Битрейт : 11,1 Мбит/сек
Максимальный битрейт : 12,0 Мбит/сек
Ширина : 1920 пикселей
Высота : 1088 пикселей
Высота оригинала : 1080 пикселей
Соотношение сторон : 16:9
Соотношение сторон в оригинале : 16:9
Режим частоты кадров : Постоянный
Частота кадров : 25,000 кадров/сек
Частота кадров в оригинале : 12,500 кадров/сек
Цветовое пространство : YUV
Субдискретизация насыщенности : 4:2:0
Битовая глубина : 8 бит
Тип развёртки : Прогрессивная
Бит/(Пиксели*Кадры) : 0.213
Размер потока : 4,43 Гбайт (93%)
Размер потока оригинала : 4,62 Гбайт (97%)
Язык : English
Дата кодирования : UTC 2014-06-25 08:28:35
Дата пометки : UTC 2014-06-25 08:28:35
Аудио
Идентификатор : 1
Формат : AAC
Формат/Информация : Advanced Audio Codec
Профиль формата : LC
Идентификатор кодека : 40
Продолжительность : 57 м.
Продолжительность оригинала : 57 м.
Вид битрейта : Постоянный
Битрейт : 384 Кбит/сек
Номинальный битрейт : 128 Кбит/сек
Каналы : 2 канала
Расположение каналов : Front: L R
Частота : 48,0 КГц
Метод сжатия : С потерями
Размер потока : 157 Мбайт (3%)
Размер потока оригинала : 157 Мбайт (3%)
Язык : English
Дата кодирования : UTC 2014-06-25 08:28:35
Дата пометки : UTC 2014-06-25 08:28:35
mdhd_Duration : 3420219
Скриншоты видео
2004 Henri Guedon - Live at The New Morning [HDTV 1080p] 02004 Henri Guedon - Live at The New Morning [HDTV 1080p] 12004 Henri Guedon - Live at The New Morning [HDTV 1080p] 22004 Henri Guedon - Live at The New Morning [HDTV 1080p] 32004 Henri Guedon - Live at The New Morning [HDTV 1080p] 42004 Henri Guedon - Live at The New Morning [HDTV 1080p] 52004 Henri Guedon - Live at The New Morning [HDTV 1080p] 62004 Henri Guedon - Live at The New Morning [HDTV 1080p] 72004 Henri Guedon - Live at The New Morning [HDTV 1080p] 82004 Henri Guedon - Live at The New Morning [HDTV 1080p] 92004 Henri Guedon - Live at The New Morning [HDTV 1080p] 102004 Henri Guedon - Live at The New Morning [HDTV 1080p] 11
Приватный:
Нет (DHT включён)
Размер:
4.78 Гб (5,128,847,581 байт) » файлов: 1
Участники:
0 раздают, 0 качают (0 участников всего)
Внешние участники:
1 раздают, 0 качают (1 участников всего) [ Обновить ]
No seeders - write a personal message to user M0p94ok. Нет сидеров - пишите личное сообщение пользователю M0p94ok.
135
Нет комментариев. Ваш будет первым!