Поиск

2016 Avishai Cohen Quartet - D'Jazz Nevers Festival [HDTV 1080i]

2016 Avishai Cohen Quartet - D'Jazz Nevers Festival [HDTV 1080i]
Дата проведения концерта (записи):
11 ноября 20016
Место проведения:
D'Jazz Nevers Festival
Главы (разбивка по трекам):
нет
Качество:
HDTV
Разрешение видео/развёртка:
1080i
Контейнер:
MP4
Видео кодек:
HEVC
Аудио кодек:
FLAC
Видео:
AVC,1920*1080i (16:9), 3455kbps, 25fps
Аудио:
MPEG2, 256kbps, 48kHz, 2ch
Состав:
  • Avishai Cohen - trumpet
  • Yonathan Avisahi - piano
  • Yoni Zelnik - bass
  • Jonathan Black - drums
Треклист:

01. Dream Like A Child
02. Into The Silence
03. Quiescence
04. Behind The Broken Glass

Отчёт DVDInfo/MediaInfo/BDInfo
Общее
Полное имя : \\NASF8F4EB\Videos\HD Video\A\Avishai Cohen\2016 Avishai Cohen Quartet - D'Jazz Nevers Festival [HDTV 1080i]\2016 Avishai Cohen Quartet - D'Jazz Nevers Festival [HDTV 1080i].mp4
Формат : MPEG-4
Профиль формата : Base Media
Идентификатор кодека : isom (isom/iso2/avc1/mp41)
Размер файла : 1,45 Гбайт
Продолжительность : 55 м. 40 с.
Общий поток : 3717 Кбит/сек
Программа кодирования : Lavf54.63.104

Видео
Идентификатор : 1
Формат : AVC
Формат/Информация : Advanced Video Codec
Профиль формата : High@L4
Настройки формата : CABAC / 4 Ref Frames
Параметр CABAC формата : Да
Параметр RefFrames формата : 4 кадра
Параметр GOP формата : M=4, N=28
Идентификатор кодека : avc1
Идентификатор кодека/Информация : Advanced Video Coding
Продолжительность : 55 м. 40 с.
Битрейт : 3455 Кбит/сек
Ширина : 1920 пикселей
Высота : 1080 пикселей
Соотношение сторон : 16:9
Режим частоты кадров : Постоянный
Частота кадров : 25,000 кадров/сек
Стандарт вещания : Component
Цветовое пространство : YUV
Субдискретизация насыщенности : 4:2:0
Битовая глубина : 8 бит
Тип развёртки : Чересстрочная
Метод сохранения типа развёртки : Раздельные поля
Порядок развёртки : Верхнее поле первое
Бит/(Пиксели*Кадры) : 0.067
Размер потока : 1,34 Гбайт (93%)
Цветовой диапазон : Limited
Основные цвета : BT.709
Характеристики трансфера : BT.709
Коэффициенты матрицы : BT.709
Codec configuration box : avcC

Аудио
Идентификатор : 2
Формат : MPEG Audio
Версия формата : Version 1
Профиль формата : Layer 2
Идентификатор кодека : mp4a-6B
Продолжительность : 55 м. 40 с.
Duration_LastFrame : -24 мс.
Вид битрейта : Постоянный
Битрейт : 256 Кбит/сек
Каналы : 2 канала
Частота : 48,0 КГц
Метод сжатия : С потерями
Размер потока : 102 Мбайт (7%)
Язык : Russian
Default : Да
AlternateGroup/String : 1
Скриншоты видео
2016 Avishai Cohen Quartet - D'Jazz Nevers Festival [HDTV 1080i] 02016 Avishai Cohen Quartet - D'Jazz Nevers Festival [HDTV 1080i] 12016 Avishai Cohen Quartet - D'Jazz Nevers Festival [HDTV 1080i] 22016 Avishai Cohen Quartet - D'Jazz Nevers Festival [HDTV 1080i] 32016 Avishai Cohen Quartet - D'Jazz Nevers Festival [HDTV 1080i] 4
Приватный:
Нет (DHT включён)
Размер:
1.45 Гб (1,551,986,697 байт) » файлов: 1
Участники:
0 раздают, 34 качают (34 участников всего)
Внешние участники:
--- [ Обновить ]
No seeders - write a personal message to user M0p94ok. Нет сидеров - пишите личное сообщение пользователю M0p94ok.
145
Нет комментариев. Ваш будет первым!