Поиск

2011 James Carter Organ Trio - Live at Jazz en Tete [HDTV 1080p]

2011 James Carter Organ Trio - Live at Jazz en Tete [HDTV 1080p]
Время звучания:
00:53:05
Состав:
  • James Carter - saxophones
  • Gerard Gibbs - organ Hammond B3
  • Leonard King - drums
Описание:

Качество: HDTVRip 1080p
Контейнер: MKV
Видео кодек: H.264
Аудио кодек: AC3
Видео: 1920x1080 (16:9), 25.00 fps, AVC, MKV, 8186 Кбит, 0.158 bits/pixel
Аудио: 48.0 KHz, AC3, 2 ch, stereo, 256 Kbps

Отчёт DVDInfo/MediaInfo/BDInfo
Полное имя : G:\DVD\James Carter Organ Trio (2011)\James Carter Organ Trio - Live at Jazz en Tete.mkv
Формат : Matroska
Размер файла : 3,19 Гбайт
Продолжительность : 53 м.
Общий поток : 8613 Кбит/сек
Программа кодирования : Lavf51.12.1
Библиотека кодирования : Lavf51.12.1

Видео
Идентификатор : 1
Формат : AVC
Формат/Информация : Advanced Video Codec
Профиль формата : Baseline@L4.0
Параметр CABAC формата : Нет
Параметр ReFrames формата : 1 кадр
Параметр GOP формата : M=1, N=12
Идентификатор кодека : V_MPEG4/ISO/AVC
Продолжительность : 53 м.
Вид битрейта : Переменный
Битрейт : 8186 Кбит/сек
Максимальный битрейт : 12,0 Мбит/сек
Ширина : 1920 пикселей
Высота : 1080 пикселей
Соотношение сторон : 16:9
Частота кадров : 25,000 кадров/сек
Частота кадров в оригинале : 24,000 кадра/сек
Цветовое пространство : YUV
Субдискретизация насыщенности : 4:2:0
Битовая глубина : 8 бит
Тип развёртки : Прогрессивная
Бит/(Пиксели*Кадры) : 0.158
Размер потока : 3,04 Гбайт (95%)
Язык : English / English

Аудио
Идентификатор : 2
Формат : AC-3
Формат/Информация : Audio Coding 3
Расширение режима : CM (complete main)
Идентификатор кодека : A_AC3
Продолжительность : 53 м.
Вид битрейта : Постоянный
Битрейт : 256 Кбит/сек
Каналы : 2 канала
Расположение каналов : Front: L R
Частота : 48,0 КГц
Битовая глубина : 16 бит
Метод сжатия : С потерями
Размер потока : 97,2 Мбайт (3%)
Язык : English / English
Скриншоты видео
2011 James Carter Organ Trio - Live at Jazz en Tete [HDTV 1080p] 02011 James Carter Organ Trio - Live at Jazz en Tete [HDTV 1080p] 12011 James Carter Organ Trio - Live at Jazz en Tete [HDTV 1080p] 22011 James Carter Organ Trio - Live at Jazz en Tete [HDTV 1080p] 32011 James Carter Organ Trio - Live at Jazz en Tete [HDTV 1080p] 42011 James Carter Organ Trio - Live at Jazz en Tete [HDTV 1080p] 52011 James Carter Organ Trio - Live at Jazz en Tete [HDTV 1080p] 62011 James Carter Organ Trio - Live at Jazz en Tete [HDTV 1080p] 72011 James Carter Organ Trio - Live at Jazz en Tete [HDTV 1080p] 82011 James Carter Organ Trio - Live at Jazz en Tete [HDTV 1080p] 92011 James Carter Organ Trio - Live at Jazz en Tete [HDTV 1080p] 102011 James Carter Organ Trio - Live at Jazz en Tete [HDTV 1080p] 11
По всем вопросам пишите личное сообщение пользователю M0p94ok.
391
Нет комментариев. Ваш будет первым!