Поиск

2010 Allen Toussaint - Bright Mississippi (Jazz at Marciac) [HDTV 1080i]

2010 Allen Toussaint - Bright Mississippi (Jazz at Marciac) [HDTV 1080i]
Время звучания:
00:52:18
Главы (разбивка по трекам):
нет
Состав:
  • Allen Toussaint piano, voix
  • Bryan Breeze “Cayolle“ saxophone
  • Bill Solley guitare
  • Roland Guerrin basse
  • Herman Jackson batterie
Видео:
AVC,1920*1080i (16:9), 13,4 Mbps, 25fps
Аудио#1:
MPEG2, 256kbps, 48kHz, 2ch
Отчёт DVDInfo/MediaInfo/BDInfo
Общее
Полное имя : \\NASF8F4EB\Videos\HD Video\A\Allen Toussaint\2010 Allen Toussaint - Bright Mississippi (Jazz at Marciac) [HDTV 1080i]\2010 Allen Toussaint - Bright Mississippi (Jazz at Marciac) [HDTV 1080i].mp4
Формат : MPEG-4
Профиль формата : Base Media
Идентификатор кодека : isom (isom/iso2/avc1/mp41)
Размер файла : 5,00 Гбайт
Продолжительность : 52 м. 18 с.
Общий поток : 13,7 Мбит/сек
Программа кодирования : Lavf54.63.104

Видео
Идентификатор : 1
Формат : AVC
Формат/Информация : Advanced Video Codec
Профиль формата : Main@L4
Настройки формата : CABAC / 3 Ref Frames
Параметр CABAC формата : Да
Параметр RefFrames формата : 3 кадра
Идентификатор кодека : avc1
Идентификатор кодека/Информация : Advanced Video Coding
Продолжительность : 52 м. 18 с.
Битрейт : 13,4 Мбит/сек
Ширина : 1920 пикселей
Высота : 1080 пикселей
Соотношение сторон : 16:9
Режим частоты кадров : Постоянный
Частота кадров : 25,000 кадров/сек
Стандарт вещания : Component
Цветовое пространство : YUV
Субдискретизация насыщенности : 4:2:0
Битовая глубина : 8 бит
Тип развёртки : Чересстрочная
Метод сохранения типа развёртки : Раздельные поля
Порядок развёртки : Верхнее поле первое
Бит/(Пиксели*Кадры) : 0.259
Размер потока : 4,90 Гбайт (98%)
Цветовой диапазон : Limited
Основные цвета : BT.709
Характеристики трансфера : BT.709
Коэффициенты матрицы : BT.709
Codec configuration box : avcC

Аудио
Идентификатор : 2
Формат : MPEG Audio
Версия формата : Version 1
Профиль формата : Layer 2
Идентификатор кодека : mp4a-6B
Продолжительность : 52 м. 18 с.
Duration_LastFrame : -24 мс.
Вид битрейта : Постоянный
Битрейт : 256 Кбит/сек
Каналы : 2 канала
Частота : 48,0 КГц
Метод сжатия : С потерями
Размер потока : 95,8 Мбайт (2%)
Язык : French
Default : Да
AlternateGroup/String : 1
Скриншоты видео
2010 Allen Toussaint - Bright Mississippi (Jazz at Marciac) [HDTV 1080i] 02010 Allen Toussaint - Bright Mississippi (Jazz at Marciac) [HDTV 1080i] 12010 Allen Toussaint - Bright Mississippi (Jazz at Marciac) [HDTV 1080i] 22010 Allen Toussaint - Bright Mississippi (Jazz at Marciac) [HDTV 1080i] 32010 Allen Toussaint - Bright Mississippi (Jazz at Marciac) [HDTV 1080i] 4
По всем вопросам пишите личное сообщение пользователю M0p94ok.
461
Нет комментариев. Ваш будет первым!