Вы используете незарегистрированную версию компонента "Вкладки"!

Поиск

2015 Fabrizio Bosso Quartet & Paolo Silvestri Ensemble - Roma Jazz Fest [HDTV 1080i]

2015 Fabrizio Bosso Quartet & Paolo Silvestri Ensemble - Roma Jazz Fest [HDTV 1080i]
Время звучания:
00:57:13
Главы (разбивка по трекам):
нет
Состав:
  • Fabrizio Bosso – trumpet and flugelhorn
  • Julian Oliver Mazzariello – piano
  • Luca Alemanno – double bass
  • Nicola Angelucci – drums
  • Michele Polga - Saxophone
  • Paolo Silvestri Ensemble
Видео:
AVC, 1920x1080 (16:9), 25.00 fps, 10.8 Мбит, 0.206 bits/pixel
Аудио#1:
AAC-LC, 48.0 KHz, 384 Kbps, 2 ch, stereo
Отчёт DVDInfo/MediaInfo/BDInfo
Полное имя : C:\Users\Валера\Videos\MY MUSIC\FB Quartet & PS Ensemble - RJF 2015\Fabrizio Bosso Quartet & Paolo Silvestri Ensemble - Roma Jazz Festival 2015.mp4
Формат : MPEG-4
Профиль формата : Base Media / Version 2
Идентификатор кодека : mp42
Размер файла : 4,65 Гбайт
Продолжительность : 57 м.
Режим общего битрейта : Переменный
Общий поток : 11,6 Мбит/сек
Дата кодирования : UTC 2015-02-23 05:06:34
Дата пометки : UTC 2015-02-23 05:06:34

Видео
Идентификатор : 2
Формат : AVC
Формат/Информация : Advanced Video Codec
Профиль формата : Main@L4.0
Параметр CABAC формата : Да
Параметр ReFrames формата : 2 кадра
Параметр GOP формата : M=3, N=30
Идентификатор кодека : avc1
Идентификатор кодека/Информация : Advanced Video Coding
Продолжительность : 57 м.
Продолжительность оригинала : 57 м.
Вид битрейта : Переменный
Битрейт : 10,8 Мбит/сек
Максимальный битрейт : 12,0 Мбит/сек
Ширина : 1920 пикселей
Высота : 1088 пикселей
Высота оригинала : 1080 пикселей
Соотношение сторон : 16:9
Соотношение сторон в оригинале : 16:9
Режим частоты кадров : Постоянный
Частота кадров : 25,000 кадров/сек
Частота кадров в оригинале : 12,500 кадров/сек
Цветовое пространство : YUV
Субдискретизация насыщенности : 4:2:0
Битовая глубина : 8 бит
Тип развёртки : Прогрессивная
Бит/(Пиксели*Кадры) : 0.206
Размер потока : 4,31 Гбайт (93%)
Размер потока оригинала : 4,50 Гбайт (97%)
Язык : English
Дата кодирования : UTC 2015-02-23 05:06:34
Дата пометки : UTC 2015-02-23 05:06:34

Аудио
Идентификатор : 1
Формат : AAC
Формат/Информация : Advanced Audio Codec
Профиль формата : LC
Идентификатор кодека : 40
Продолжительность : 57 м.
Продолжительность оригинала : 57 м.
Вид битрейта : Постоянный
Битрейт : 384 Кбит/сек
Номинальный битрейт : 128 Кбит/сек
Каналы : 2 канала
Расположение каналов : Front: L R
Частота : 48,0 КГц
Метод сжатия : С потерями
Размер потока : 158 Мбайт (3%)
Размер потока оригинала : 158 Мбайт (3%)
Язык : English
Дата кодирования : UTC 2015-02-23 05:06:34
Дата пометки : UTC 2015-02-23 05:06:34
mdhd_Duration : 3440613
Any questions - support@pro-jazz.com. Есть вопросы - support@pro-jazz.com
277
Нет комментариев. Ваш будет первым!