Поиск

2016 Erik Truffaz Quartet A38 Ship, Budapest [HDTV 1080i]

2016 Erik Truffaz Quartet A38 Ship, Budapest [HDTV 1080i]
Состав:
  • Erik Truffaz - trumpet
  • Marcello Giuliani - bass
  • Benoît Corboz - keyboards
  • Arthur Hnatek - drums
Треклист:

1. Kudu
2. Fat City
3. Istanbul Tango
4. El Tiempo De La Revolucion
5. Pacheco
6. Doni Doni Part 1

Описание:

A38 Ship, 2016-05-14, Budapest, Hungary

Продолжительность: 00:50:03
Год выпуска: 2016

Огромная Благодарность уважаемому Lewojazz ~ dimeadozen — за предоставленный материал

Качество: HDTV
Разрешение видео/развертка: 1080i
Контейнер: TS
Видео кодек: H.264
Аудио кодек: AC3
Видео: 4 424 Kbps, 1920*1080 (16:9), at 25.000 fps, AVC (High@L4.0) (CABAC / 3 Ref Frames)
Аудио: Hungarian, 384 Kbps, 48.0 KHz, 16 bits, 2 channels, AC-3
Source: dvb-s2 > SkyStar2, dvb-s2 > ts > VideoReDo TVSuite V5.x > ts

Отчёт DVDInfo/MediaInfo/BDInfo
General
ID : 1 (0x1)
Complete name : C:\rutracker.org_M2 Petofi\M2 Petofi_Erik Truffaz Quartet - A38 Ship, Budapest 2016.ts
Format : MPEG-TS
File size : 1.77 GiB
Duration : 50mn 3s
Overall bit rate mode : Variable
Overall bit rate : 5 062 Kbps

Video
ID : 1102 (0x44E)
Menu ID : 1 (0x1)
Format : AVC
Format/Info : Advanced Video Codec
Format profile : High@L4.0
Format settings, CABAC : Yes
Format settings, ReFrames : 3 frames
Codec ID : 27
Duration : 50mn 3s
Bit rate : 4 424 Kbps
Width : 1 920 pixels
Height : 1 080 pixels
Display aspect ratio : 16:9
Frame rate : 25.000 fps
Color space : YUV
Chroma subsampling : 4:2:0
Bit depth : 8 bits
Scan type : MBAFF
Bits/(Pixel*Frame) : 0.085
Stream size : 1.55 GiB (87%)

Audio
ID : 1202 (0x4B2)
Menu ID : 1 (0x1)
Format : AC-3
Format/Info : Audio Coding 3
Mode extension : CM (complete main)
Format settings, Endianness : Big
Codec ID : 6
Duration : 50mn 3s
Bit rate mode : Constant
Bit rate : 384 Kbps
Channel(s) : 2 channels
Channel positions : Front: L R
Sampling rate : 48.0 KHz
Bit depth : 16 bits
Compression mode : Lossy
Stream size : 138 MiB (8%)
Language : Hungarian
Скриншоты видео
2016 Erik Truffaz Quartet A38 Ship, Budapest [HDTV 1080i] 02016 Erik Truffaz Quartet A38 Ship, Budapest [HDTV 1080i] 12016 Erik Truffaz Quartet A38 Ship, Budapest [HDTV 1080i] 22016 Erik Truffaz Quartet A38 Ship, Budapest [HDTV 1080i] 32016 Erik Truffaz Quartet A38 Ship, Budapest [HDTV 1080i] 42016 Erik Truffaz Quartet A38 Ship, Budapest [HDTV 1080i] 52016 Erik Truffaz Quartet A38 Ship, Budapest [HDTV 1080i] 62016 Erik Truffaz Quartet A38 Ship, Budapest [HDTV 1080i] 72016 Erik Truffaz Quartet A38 Ship, Budapest [HDTV 1080i] 82016 Erik Truffaz Quartet A38 Ship, Budapest [HDTV 1080i] 92016 Erik Truffaz Quartet A38 Ship, Budapest [HDTV 1080i] 102016 Erik Truffaz Quartet A38 Ship, Budapest [HDTV 1080i] 112016 Erik Truffaz Quartet A38 Ship, Budapest [HDTV 1080i] 122016 Erik Truffaz Quartet A38 Ship, Budapest [HDTV 1080i] 132016 Erik Truffaz Quartet A38 Ship, Budapest [HDTV 1080i] 142016 Erik Truffaz Quartet A38 Ship, Budapest [HDTV 1080i] 152016 Erik Truffaz Quartet A38 Ship, Budapest [HDTV 1080i] 162016 Erik Truffaz Quartet A38 Ship, Budapest [HDTV 1080i] 172016 Erik Truffaz Quartet A38 Ship, Budapest [HDTV 1080i] 182016 Erik Truffaz Quartet A38 Ship, Budapest [HDTV 1080i] 19
Download available for power users only.
607