Вы используете незарегистрированную версию компонента "Вкладки"!

Поиск

2010 Paganini Trio avec Burhan Ocal - Jazzmix Festival à Istanbul [HDTV 1080p]

2010 Paganini Trio avec Burhan Ocal - Jazzmix Festival à Istanbul [HDTV 1080p]
Дата проведения концерта (записи):
25 ноября 2010
Место проведения:
Jazzmix Festival à Istanbul, Salon IKSV
Время звучания:
00:53:28
Главы (разбивка по трекам):
нет
Состав:
  • Burhan Öçal - percussions
  • Tulug Tirpan - piano
  • Atilla Aldemir - violon
Видео:
1920x1080 (16:9), 25.00 fps, AVC, 8939 Кбит, 0.171 bits/pixel
Аудио#1:
48.0 KHz, AAC-LC, 2 ch, 128 Kbps VBR
Отчёт DVDInfo/MediaInfo/BDInfo
Полное имя : G:\DVD\Paganini Trio avec Burhan Ocal (2010)\Paganini Trio avec Burhan Ocal - Jazzmix Festival.mp4
Формат : MPEG-4
Профиль формата : Base Media / Version 2
Идентификатор кодека : mp42
Размер файла : 3,48 Гбайт
Продолжительность : 53 м.
Общий поток : 9327 Кбит/сек
Дата кодирования : UTC 2013-10-16 02:36:38
Дата пометки : UTC 2013-10-16 02:36:38

Видео
Идентификатор : 2
Формат : AVC
Формат/Информация : Advanced Video Codec
Профиль формата : Main@L4.0
Параметр CABAC формата : Да
Параметр ReFrames формата : 2 кадра
Идентификатор кодека : avc1
Идентификатор кодека/Информация : Advanced Video Coding
Продолжительность : 53 м.
Вид битрейта : Переменный
Битрейт : 8939 Кбит/сек
Максимальный битрейт : 9001 Кбит/сек
Ширина : 1920 пикселей
Высота : 1088 пикселей
Высота оригинала : 1080 пикселей
Соотношение сторон : 16:9
Соотношение сторон в оригинале : 16:9
Режим частоты кадров : Постоянный
Частота кадров : 25,000 кадров/сек
Частота кадров в оригинале : 12,500 кадров/сек
Цветовое пространство : YUV
Субдискретизация насыщенности : 4:2:0
Битовая глубина : 8 бит
Тип развёртки : Прогрессивная
Бит/(Пиксели*Кадры) : 0.171
Размер потока : 3,34 Гбайт (96%)
Язык : English
Дата кодирования : UTC 2013-10-16 02:36:38
Дата пометки : UTC 2013-10-16 02:36:38

Аудио
Идентификатор : 1
Формат : AAC
Формат/Информация : Advanced Audio Codec
Профиль формата : LC
Идентификатор кодека : 40
Продолжительность : 53 м.
Вид битрейта : Постоянный
Битрейт : 384 Кбит/сек
Номинальный битрейт : 128 Кбит/сек
Каналы : 2 канала
Расположение каналов : Front: L R
Частота : 48,0 КГц
Метод сжатия : С потерями
Размер потока : 147 Мбайт (4%)
Язык : English
Дата кодирования : UTC 2013-10-16 02:36:38
Дата пометки : UTC 2013-10-16 02:36:38
Any questions - support@pro-jazz.com. Есть вопросы - support@pro-jazz.com
356
Комментарий удален