Поиск

2011 Vinicius Cantuaria Quartet - Dinant Jazz Nights [HDTV 1080p]

2011 Vinicius Cantuaria Quartet - Dinant Jazz Nights [HDTV 1080p]
Время звучания:
00:59:03
Состав:
  • Vinicius Cantuaria (g, chant),
  • Adriano Santos (dm),
  • Itaguara Brando (b),
  • Takuya Nakamura (p, tp)
Треклист:

01. Procissao
02. Vivo Sonhando
03. Quase Choro
04. Berlin
05. Voce esta Sumindo
06. Praia Grande
07. Orla
08. Voce e Eu
09. Cubanos Postizos
10.Esse Seu Olhar

Описание:

Качество: HDTVRip 1080p
Контейнер: MKV
Видео кодек: H.264
Аудио кодек: AC3
Видео: 1920x1080 (16:9), 25.00 fps, AVC, MKV, 8196 Кбит, 0.158 bits/pixel
Аудио: 48.0 KHz, AC3, 2 ch, 192 Kbps

Отчёт DVDInfo/MediaInfo/BDInfo
Полное имя : G:\DVD\Vinicius Cantuaria Quartet (2011)\Vinicius Cantuaria Quartet - Dinant Jazz Nights.mkv
Формат : Matroska
Размер файла : 3,53 Гбайт
Продолжительность : 59 м.
Общий поток : 8558 Кбит/сек
Программа кодирования : Lavf51.12.1
Библиотека кодирования : Lavf51.12.1

Видео
Идентификатор : 1
Формат : AVC
Формат/Информация : Advanced Video Codec
Профиль формата : Baseline@L4.0
Параметр CABAC формата : Нет
Параметр ReFrames формата : 1 кадр
Параметр GOP формата : M=1, N=12
Идентификатор кодека : V_MPEG4/ISO/AVC
Продолжительность : 59 м.
Вид битрейта : Переменный
Битрейт : 8196 Кбит/сек
Максимальный битрейт : 12,0 Мбит/сек
Ширина : 1920 пикселей
Высота : 1080 пикселей
Соотношение сторон : 16:9
Частота кадров : 25,000 кадров/сек
Частота кадров в оригинале : 24,000 кадра/сек
Цветовое пространство : YUV
Субдискретизация насыщенности : 4:2:0
Битовая глубина : 8 бит
Тип развёртки : Прогрессивная
Бит/(Пиксели*Кадры) : 0.158
Размер потока : 3,38 Гбайт (96%)
Язык : English / English

Аудио
Идентификатор : 2
Формат : AC-3
Формат/Информация : Audio Coding 3
Расширение режима : CM (complete main)
Идентификатор кодека : A_AC3
Продолжительность : 59 м.
Вид битрейта : Постоянный
Битрейт : 192 Кбит/сек
Каналы : 2 канала
Расположение каналов : Front: L R
Частота : 48,0 КГц
Битовая глубина : 16 бит
Метод сжатия : С потерями
Размер потока : 81,1 Мбайт (2%)
Язык : English / English
Скриншоты видео
2011 Vinicius Cantuaria Quartet - Dinant Jazz Nights [HDTV 1080p] 02011 Vinicius Cantuaria Quartet - Dinant Jazz Nights [HDTV 1080p] 12011 Vinicius Cantuaria Quartet - Dinant Jazz Nights [HDTV 1080p] 22011 Vinicius Cantuaria Quartet - Dinant Jazz Nights [HDTV 1080p] 32011 Vinicius Cantuaria Quartet - Dinant Jazz Nights [HDTV 1080p] 42011 Vinicius Cantuaria Quartet - Dinant Jazz Nights [HDTV 1080p] 52011 Vinicius Cantuaria Quartet - Dinant Jazz Nights [HDTV 1080p] 62011 Vinicius Cantuaria Quartet - Dinant Jazz Nights [HDTV 1080p] 72011 Vinicius Cantuaria Quartet - Dinant Jazz Nights [HDTV 1080p] 82011 Vinicius Cantuaria Quartet - Dinant Jazz Nights [HDTV 1080p] 92011 Vinicius Cantuaria Quartet - Dinant Jazz Nights [HDTV 1080p] 102011 Vinicius Cantuaria Quartet - Dinant Jazz Nights [HDTV 1080p] 11
По всем вопросам пишите личное сообщение пользователю M0p94ok.
485
Нет комментариев. Ваш будет первым!