Вы используете незарегистрированную версию компонента "Вкладки"!

Поиск

2012 Norah Jones - Live From the Artists Den [HDTV 720p]

2012 Norah Jones - Live From the Artists Den [HDTV 720p]
Описание:

Продолжительность: 50:34
Год выпуска: 2012
Описание: Artists Den
The Green Building, Brooklyn, New York, USA March 29, 2012

Качество: HDTV 720p
Контейнер: MKV
Видео кодек: H.264
Аудио кодек: AC3
Видео: AVC, profile High@L4.0, 1280 X 720 50p, 16:9
Аудио: Dolby Digital 2.0 448 kbps, 48 kHz

Отчёт DVDInfo/MediaInfo/BDInfo
Общее
Уникальный идентификатор : 228732515057186648259290071557290180841 (0xAC1447AE1A964715B4014A76A4E5C0E9)
Полное имя : H:\CAPTURE\Norah Jones - Live From the Artists Den (2012)[HDTV 720p].mkv
Формат : Matroska
Версия формата : Version 4 / Version 2
Размер файла : 3,89 Гбайт
Продолжительность : 50 м.
Общий поток : 11,0 Мбит/сек
Название фильма : Norah Jones 2012-03-29 Artists Den
Дата кодирования : UTC 2013-09-27 10:17:30
Программа кодирования : mkvmerge v6.3.0 ('You can't stop me!') built on Jun 28 2013 20:09:41
Библиотека кодирования : libebml v1.3.0 + libmatroska v1.4.0
Attachment : Yes

Видео
Идентификатор : 1
Формат : AVC
Формат/Информация : Advanced Video Codec
Профиль формата : High@L4.0
Параметр CABAC формата : Да
Параметр ReFrames формата : 6 кадров
Идентификатор кодека : V_MPEG4/ISO/AVC
Продолжительность : 50 м.
Битрейт : 10,3 Мбит/сек
Ширина : 1280 пикселей
Высота : 720 пикселей
Соотношение сторон : 16:9
Режим частоты кадров : Постоянный
Частота кадров : 50,000 кадров/сек
Цветовое пространство : YUV
Субдискретизация насыщенности : 4:2:0
Битовая глубина : 8 бит
Тип развёртки : Прогрессивная
Бит/(Пиксели*Кадры) : 0.224
Размер потока : 3,65 Гбайт (94%)
Default : Да
Forced : Нет
Основные цвета : BT.709
Характеристики трансфера : BT.709
Коэффициенты матрицы : BT.709

Аудио
Идентификатор : 2
Формат : AC-3
Формат/Информация : Audio Coding 3
Расширение режима : CM (complete main)
Параметр Endianness формата : Big
Идентификатор кодека : A_AC3
Продолжительность : 50 м.
Вид битрейта : Постоянный
Битрейт : 448 Кбит/сек
Каналы : 2 канала
Расположение каналов : Front: L R
Частота : 48,0 КГц
Битовая глубина : 16 бит
Метод сжатия : С потерями
Размер потока : 162 Мбайт (4%)
Заголовок : DD 2.0
Язык : English
Default : Да
Forced : Нет

Меню
00:00:00.000 : en:Intro
00:01:25.640 : en:Good Morning
00:04:38.440 : en:Interview
00:05:06.420 : en:Little Broken Hearts
00:08:25.580 : en:Take it Back
00:12:44.860 : en:Interview
00:13:20.620 : en:It's Gonna Be
00:16:39.120 : en:Black
00:20:08.660 : en:Out On The Road
00:23:47.940 : en:Miriam
00:28:17.880 : en:Interview
00:28:36.940 : en:Happy Pills
00:32:13.360 : en:Don't Know Why
00:36:27.540 : en:Sinkin Soon
00:41:03.580 : en:Interview
00:41:34.420 : en:Lone Star
00:46:07.080 : en:Sunrise
00:49:42.980 : en:End credits (Travellin' On)
Any questions - support@pro-jazz.com. Есть вопросы - support@pro-jazz.com
288
Нет комментариев. Ваш будет первым!