Поиск

2005 Dave Matthews Band - Weekend On The Rocks [HDTV 1080p]

2005 Dave Matthews Band - Weekend On The Rocks [HDTV 1080p]
Треклист:

01. Stand Up (For It)
02. Time Of The Season
03. Dream Girl
04. Everybody Wake Up (Our Finest Hour Arrives)
05. Crash Into Me
06. So Much To Say
07. Too Much
08. Louisiana Bayou

Описание:

Dave Matthews Band — Weekend On The Rocks, Soundstage Series, September 09-12, 2005

Продолжительность: 00:54:00
Год выпуска: 2005

Качество: HDTVRip 1080p
Контейнер: MKV
Видео кодек: H.264
Аудио кодек: AC3
Видео: 1920x1080 (16:9), 25.00 fps, AVC, MKV, 8191 Кбит, 0.158 bits/pixel
Аудио: 48.0 KHz, AC3, 2 ch, 192 Kbps

Отчёт DVDInfo/MediaInfo/BDInfo
Полное имя : G:\DVD\Dave Matthews Band (2005)\Dave Matthews Band - Weekend On The Rocks.mkv
Формат : Matroska
Размер файла : 3,23 Гбайт
Продолжительность : 54 м.
Общий поток : 8554 Кбит/сек
Программа кодирования : Lavf51.12.1
Библиотека кодирования : Lavf51.12.1

Видео
Идентификатор : 1
Формат : AVC
Формат/Информация : Advanced Video Codec
Профиль формата : Baseline@L4.0
Параметр CABAC формата : Нет
Параметр ReFrames формата : 1 кадр
Параметр GOP формата : M=1, N=12
Идентификатор кодека : V_MPEG4/ISO/AVC
Продолжительность : 54 м.
Вид битрейта : Переменный
Битрейт : 8191 Кбит/сек
Максимальный битрейт : 12,0 Мбит/сек
Ширина : 1920 пикселей
Высота : 1080 пикселей
Соотношение сторон : 16:9
Частота кадров : 25,000 кадров/сек
Частота кадров в оригинале : 24,000 кадра/сек
Цветовое пространство : YUV
Субдискретизация насыщенности : 4:2:0
Битовая глубина : 8 бит
Тип развёртки : Прогрессивная
Бит/(Пиксели*Кадры) : 0.158
Размер потока : 3,09 Гбайт (96%)
Язык : English / English

Аудио
Идентификатор : 2
Формат : AC-3
Формат/Информация : Audio Coding 3
Расширение режима : CM (complete main)
Идентификатор кодека : A_AC3
Продолжительность : 54 м.
Вид битрейта : Постоянный
Битрейт : 192 Кбит/сек
Каналы : 2 канала
Расположение каналов : Front: L R
Частота : 48,0 КГц
Битовая глубина : 16 бит
Метод сжатия : С потерями
Размер потока : 74,2 Мбайт (2%)
Язык : English / English
Скриншоты видео
2005 Dave Matthews Band - Weekend On The Rocks [HDTV 1080p] 02005 Dave Matthews Band - Weekend On The Rocks [HDTV 1080p] 12005 Dave Matthews Band - Weekend On The Rocks [HDTV 1080p] 22005 Dave Matthews Band - Weekend On The Rocks [HDTV 1080p] 32005 Dave Matthews Band - Weekend On The Rocks [HDTV 1080p] 42005 Dave Matthews Band - Weekend On The Rocks [HDTV 1080p] 52005 Dave Matthews Band - Weekend On The Rocks [HDTV 1080p] 62005 Dave Matthews Band - Weekend On The Rocks [HDTV 1080p] 72005 Dave Matthews Band - Weekend On The Rocks [HDTV 1080p] 82005 Dave Matthews Band - Weekend On The Rocks [HDTV 1080p] 92005 Dave Matthews Band - Weekend On The Rocks [HDTV 1080p] 102005 Dave Matthews Band - Weekend On The Rocks [HDTV 1080p] 11
Download available for power users only.
496
Нет комментариев. Ваш будет первым!