Вы используете незарегистрированную версию компонента "Вкладки"!

Поиск

2019 Marcus Miller - Jazz a la Villette [HDTV 1080i]

2019 Marcus Miller - Jazz a la Villette [HDTV 1080i]
Дата проведения концерта (записи):
29 августа 2019
Место проведения:
Grande Halle de La Villette, Paris, France
Время звучания:
02:05:58
Главы (разбивка по трекам):
нет
Состав:
  • Marcus Miller - bass
  • Marquis Hill - trumpet
  • Alex Han (Alexandre Athané) - saxophone
  • Brett Williams - keyboard
  • Alex Bailey - drum kit
Видео:
MPEG4 Video (H264) 1920x1080 25fps 29.3 Mb/s
Аудио#1:
MPEG Audio 48000Hz stereo 384kbps
Отчёт DVDInfo/MediaInfo/BDInfo
General
ID : 1 (0x1)
Complete name : F:\Marcus Miller - Jazz à la Villette 2019.ts
Format : MPEG-TS
File size : 27.2 GiB
Duration : 2 h 8 min
Overall bit rate mode : Variable
Overall bit rate : 30.4 Mb/s

Video
ID : 512 (0x200)
Menu ID : 1 (0x1)
Format : AVC
Format/Info : Advanced Video Codec
Format profile : High@L4.1
Format settings : CABAC / 3 Ref Frames
Format settings, CABAC : Yes
Format settings, Reference fra : 3 frames
Codec ID : 27
Duration : 2 h 8 min
Bit rate mode : Constant
Bit rate : 29.3 Mb/s
Width : 1 920 pixels
Height : 1 080 pixels
Display aspect ratio : 16:9
Frame rate : 25.000 FPS
Color space : YUV
Chroma subsampling : 4:2:0
Bit depth : 8 bits
Scan type : MBAFF
Scan type, store method : Interleaved fields
Scan order : Top Field First
Bits/(Pixel*Frame) : 0.566
Stream size : 25.2 GiB (93%)
Color range : Limited
Color primaries : BT.709
Transfer characteristics : BT.709
Matrix coefficients : BT.709

Audio #1
ID : 4112 (0x1010)
Menu ID : 1 (0x1)
Format : MPEG Audio
Format version : Version 1
Format profile : Layer 2
Codec ID : 3
Duration : 2 h 8 min
Bit rate mode : Constant
Bit rate : 384 kb/s
Channel(s) : 2 channels
Sampling rate : 48.0 kHz
Frame rate : 41.667 FPS (1152 SPF)
Compression mode : Lossy
Delay relative to video : 16 ms
Stream size : 352 MiB (1%)
Language : French

Audio #2
ID : 4128 (0x1020)
Menu ID : 1 (0x1)
Format : MPEG Audio
Format version : Version 1
Format profile : Layer 2
Codec ID : 3
Duration : 2 h 8 min
Bit rate mode : Constant
Bit rate : 384 kb/s
Channel(s) : 2 channels
Sampling rate : 48.0 kHz
Frame rate : 41.667 FPS (1152 SPF)
Compression mode : Lossy
Delay relative to video : 16 ms
Stream size : 352 MiB (1%)
Language : German
Language, more info : Clean effects
Any questions - support@pro-jazz.com. Есть вопросы - support@pro-jazz.com
528
Нет комментариев. Ваш будет первым!