Поиск

2009 Chris Dave - JazzMix - Live at Harlem Center, Festival in New York City [HDTV 1080p]

2009 Chris Dave - JazzMix - Live at Harlem Center, Festival in New York City [HDTV 1080p]
Дата проведения концерта (записи):
2009
Место проведения:
Harlem Center, New York City
Время звучания:
00:51:09
Состав:
  • Chris Dave
  • Derrick Hodge
  • Robert Glasper
Треклист:

01. Butterfly
02. Paint The World
03. Interlude of fela kuti
04. Rainbows
05. Indulding in such
06. The Message
08. Stakes is high
09. Drummer's ballad 610
10.For the foundation
11.Chris dave solo

Описание:

Качество: HDTVRip 1080p
Контейнер: MKV
Видео кодек: H.264
Аудио кодек: AC3
Видео: 1920x1080 (16:9), 25.00 fps, AVC, MKV, 8177 Кбит, 0.158 bits/pixel
Аудио: 48.0 KHz, AC3, 2 ch, 192 Kbps

Отчёт DVDInfo/MediaInfo/BDInfo
Полное имя : G:\DVD\Chris Dave (2009)\Chris Dave - JazzMix-Live at Harlem Center.mkv
Формат : Matroska
Размер файла : 3,05 Гбайт
Продолжительность : 51 м.
Общий поток : 8539 Кбит/сек
Программа кодирования : Lavf51.12.1
Библиотека кодирования : Lavf51.12.1

Видео
Идентификатор : 1
Формат : AVC
Формат/Информация : Advanced Video Codec
Профиль формата : Baseline@L4.0
Параметр CABAC формата : Нет
Параметр ReFrames формата : 1 кадр
Параметр GOP формата : M=1, N=12
Идентификатор кодека : V_MPEG4/ISO/AVC
Продолжительность : 51 м.
Вид битрейта : Переменный
Битрейт : 8177 Кбит/сек
Максимальный битрейт : 12,0 Мбит/сек
Ширина : 1920 пикселей
Высота : 1080 пикселей
Соотношение сторон : 16:9
Частота кадров : 25,000 кадров/сек
Частота кадров в оригинале : 24,000 кадра/сек
Цветовое пространство : YUV
Субдискретизация насыщенности : 4:2:0
Битовая глубина : 8 бит
Тип развёртки : Прогрессивная
Бит/(Пиксели*Кадры) : 0.158
Размер потока : 2,92 Гбайт (96%)
Язык : English / English

Аудио
Идентификатор : 2
Формат : AC-3
Формат/Информация : Audio Coding 3
Расширение режима : CM (complete main)
Идентификатор кодека : A_AC3
Продолжительность : 51 м.
Вид битрейта : Постоянный
Битрейт : 192 Кбит/сек
Каналы : 2 канала
Расположение каналов : Front: L R
Частота : 48,0 КГц
Битовая глубина : 16 бит
Метод сжатия : С потерями
Размер потока : 70,2 Мбайт (2%)
Язык : English / English
Скриншоты видео
2009 Chris Dave - JazzMix - Live at Harlem Center, Festival in New York City [HDTV 1080p] 02009 Chris Dave - JazzMix - Live at Harlem Center, Festival in New York City [HDTV 1080p] 12009 Chris Dave - JazzMix - Live at Harlem Center, Festival in New York City [HDTV 1080p] 22009 Chris Dave - JazzMix - Live at Harlem Center, Festival in New York City [HDTV 1080p] 32009 Chris Dave - JazzMix - Live at Harlem Center, Festival in New York City [HDTV 1080p] 42009 Chris Dave - JazzMix - Live at Harlem Center, Festival in New York City [HDTV 1080p] 52009 Chris Dave - JazzMix - Live at Harlem Center, Festival in New York City [HDTV 1080p] 62009 Chris Dave - JazzMix - Live at Harlem Center, Festival in New York City [HDTV 1080p] 72009 Chris Dave - JazzMix - Live at Harlem Center, Festival in New York City [HDTV 1080p] 82009 Chris Dave - JazzMix - Live at Harlem Center, Festival in New York City [HDTV 1080p] 92009 Chris Dave - JazzMix - Live at Harlem Center, Festival in New York City [HDTV 1080p] 102009 Chris Dave - JazzMix - Live at Harlem Center, Festival in New York City [HDTV 1080p] 112009 Chris Dave - JazzMix - Live at Harlem Center, Festival in New York City [HDTV 1080p] 12
По всем вопросам пишите личное сообщение пользователю M0p94ok.
544
Нет комментариев. Ваш будет первым!