Вы используете незарегистрированную версию компонента "Вкладки"!

Поиск

2013 Fred Hersch - Fred Hersch Solo [HDTV 1080p]

2013 Fred Hersch - Fred Hersch Solo [HDTV 1080p]
Дата проведения концерта (записи):
20 июля 2013
Место проведения:
Saint-Emilion Jazz Festival
Время звучания:
00:54:35
Описание:

Качество: HDTVRip 1080p
Контейнер: MKV
Видео кодек: H.264
Аудио кодек: AC3
Видео: 1920x1080 (16:9), 25.00 fps, AVC, MKV, 8177 Кбит, 0.158 bits/pixel
Аудио: 48.0 KHz, AC3, 2 ch, 192 Kbps

Отчёт DVDInfo/MediaInfo/BDInfo
Полное имя : G:\DVD\Fred Hersch (2013)\Fred Hersch - Fred Hersch Solo.mkv
Формат : Matroska
Размер файла : 3,26 Гбайт
Продолжительность : 54 м.
Общий поток : 8539 Кбит/сек
Программа кодирования : Lavf51.12.1
Библиотека кодирования : Lavf51.12.1

Видео
Идентификатор : 1
Формат : AVC
Формат/Информация : Advanced Video Codec
Профиль формата : Baseline@L4.0
Параметр CABAC формата : Нет
Параметр ReFrames формата : 1 кадр
Параметр GOP формата : M=1, N=12
Идентификатор кодека : V_MPEG4/ISO/AVC
Продолжительность : 54 м.
Вид битрейта : Переменный
Битрейт : 8177 Кбит/сек
Максимальный битрейт : 12,0 Мбит/сек
Ширина : 1920 пикселей
Высота : 1080 пикселей
Соотношение сторон : 16:9
Частота кадров : 25,000 кадров/сек
Частота кадров в оригинале : 24,000 кадра/сек
Цветовое пространство : YUV
Субдискретизация насыщенности : 4:2:0
Битовая глубина : 8 бит
Тип развёртки : Прогрессивная
Бит/(Пиксели*Кадры) : 0.158
Размер потока : 3,12 Гбайт (96%)
Язык : English / English

Аудио
Идентификатор : 2
Формат : AC-3
Формат/Информация : Audio Coding 3
Расширение режима : CM (complete main)
Идентификатор кодека : A_AC3
Продолжительность : 54 м.
Вид битрейта : Постоянный
Битрейт : 192 Кбит/сек
Каналы : 2 канала
Расположение каналов : Front: L R
Частота : 48,0 КГц
Битовая глубина : 16 бит
Метод сжатия : С потерями
Размер потока : 75,0 Мбайт (2%)
Язык : English / English
Any questions - support@pro-jazz.com. Есть вопросы - support@pro-jazz.com
266
Нет комментариев. Ваш будет первым!