Вы используете незарегистрированную версию компонента "Вкладки"!

Поиск

2010 Joshua Redman Double Trio - Jazz a Juan Festival [HDTV 1080i]

2010 Joshua Redman Double Trio - Jazz a Juan Festival [HDTV 1080i]
Время звучания:
01:08:50
Состав:
  • Joshua Redman - soprano & tenor sax
  • Matt Penman - bass
  • Reuben Rogers - bass
  • Gregory Hutchinson - drums
  • Bill Stewart - drums
Описание:

Качество: HDTV 1080i
Контейнер: TS
Видео кодек: H.264
Аудио кодек: AC3
Видео: 7 727 Kbps, 1920*1080 (16:9), at 25.000 fps, AVC (Main@L4.0) (CABAC / 4 Ref Frames)
Аудио: French, 256 Kbps, 48.0 KHz, 16 bits, 2 channels, AC-3

Filmé au Festival Jazz à Juan le 20 Juillet 2010
… записано на VU+ SOLO² ruDREAM Live X

Огромная Благодарность уважаемому greggr – за предоставленный материал ...
Спасибо большое !!!

Отчёт DVDInfo/MediaInfo/BDInfo
General
ID : 1102 (0x44E)
Complete name : K:\rutracker.org_mezzo live HD\Joshua Redman double trio - Jazz a Juan 2010.ts
Format : MPEG-TS
File size : 4.04 GiB
Duration : 1h 8mn
Overall bit rate : 8 401 Kbps

Video
ID : 161 (0xA1)
Menu ID : 6502 (0x1966)
Format : AVC
Format/Info : Advanced Video Codec
Format profile : High@L4.0
Format settings, CABAC : Yes
Format settings, ReFrames : 4 frames
Codec ID : 27
Duration : 1h 8mn
Bit rate : 7 727 Kbps
Width : 1 920 pixels
Height : 1 080 pixels
Display aspect ratio : 16:9
Frame rate : 25.000 fps
Color space : YUV
Chroma subsampling : 4:2:0
Bit depth : 8 bits
Scan type : MBAFF
Bits/(Pixel*Frame) : 0.149
Stream size : 3.71 GiB (92%)
Color primaries : BT.709-5, BT.1361, IEC 61966-2-4, SMPTE RP177
Transfer characteristics : BT.709-5, BT.1361
Matrix coefficients : BT.709-5, BT.1361, IEC 61966-2-4 709, SMPTE RP177

Audio
ID : 86 (0x56)
Menu ID : 6502 (0x1966)
Format : AC-3
Format/Info : Audio Coding 3
Mode extension : CM (complete main)
Codec ID : 6
Duration : 1h 8mn
Bit rate mode : Constant
Bit rate : 256 Kbps
Channel(s) : 2 channels
Channel positions : Front: L R
Sampling rate : 48.0 KHz
Bit depth : 16 bits
Compression mode : Lossy
Delay relative to video : -1s 76ms
Stream size : 126 MiB (3%)
Language : French

Menu
ID : 1281 (0x501)
Menu ID : 6502 (0x1966)
Duration : 1h 8mn
List : 86 (0x56) (AC-3, French) / 161 (0xA1) (AVC)
Language : French
Any questions - support@pro-jazz.com. Есть вопросы - support@pro-jazz.com
262
Нет комментариев. Ваш будет первым!