Поиск

2016 Terence Blanchard 5tet - The Movie Music Of Spike Lee & Terence Blanchard - Lotos Jazz Festival [HDTV 1080i]

2016 Terence Blanchard 5tet - The Movie Music Of Spike Lee & Terence Blanchard - Lotos Jazz Festival  [HDTV 1080i]
Состав:

Terence Blanchard 5TET
Terence Blanchard    TRUMPET
FABIAN ALMAZAN    PIANO
TABARI LAKE     DOUBLE BASS
JUSTIN FAULKNER     DRUMS
KHARI ALLEN LEE    SAXOPHONE

with guests
Dee Dee Bridgewater    VOCAL
CHINA MQSES    VOCAL
BECCA STEVÉNS VOCAL

POLISH NATIONAL RADIO SYMPHONY ORCHESTRA

Дата проведения концерта (записи):
6 марта 2016
Место проведения:
Bielska Zadymka Jazzowa, Lotos Jazz Festival
Время звучания:
00:51:36
Главы (разбивка по трекам):
нет
Видео:
AVC,1920*1080i (16:9), 5082kbps, 25fps
Аудио#1:
MPEG2, 256kbps, 48kHz, 2ch
Отчёт DVDInfo/MediaInfo/BDInfo
Общее
Полное имя : \\NASF8F4EB\Videos\HD Video\T\Terence Blanchard\2016 Terence Blanchard - The Movie Music Of Spike Lee - Lotos Jazz Fest [HDTV 1080i]\2016 The Movie Music Of Spike Lee & Terence Blanchard - Lotos Jazz Fest [HDTV 1080i].mp4
Формат : MPEG-4
Профиль формата : Base Media
Идентификатор кодека : isom (isom/iso2/avc1/mp41)
Размер файла : 1,93 Гбайт
Продолжительность : 51 м. 36 с.
Общий поток : 5343 Кбит/сек
Программа кодирования : Lavf54.63.104

Видео
Идентификатор : 1
Формат : AVC
Формат/Информация : Advanced Video Codec
Профиль формата : High@L4
Настройки формата : CABAC / 4 Ref Frames
Параметр CABAC формата : Да
Параметр RefFrames формата : 4 кадра
Параметр GOP формата : M=4, N=28
Идентификатор кодека : avc1
Идентификатор кодека/Информация : Advanced Video Coding
Продолжительность : 51 м. 36 с.
Битрейт : 5082 Кбит/сек
Ширина : 1920 пикселей
Высота : 1080 пикселей
Соотношение сторон : 16:9
Режим частоты кадров : Постоянный
Частота кадров : 25,000 кадров/сек
Стандарт вещания : Component
Цветовое пространство : YUV
Субдискретизация насыщенности : 4:2:0
Битовая глубина : 8 бит
Тип развёртки : Чересстрочная
Метод сохранения типа развёртки : Раздельные поля
Порядок развёртки : Верхнее поле первое
Бит/(Пиксели*Кадры) : 0.098
Размер потока : 1,83 Гбайт (95%)
Цветовой диапазон : Limited
Основные цвета : BT.709
Характеристики трансфера : BT.709
Коэффициенты матрицы : BT.709
Codec configuration box : avcC

Аудио
Идентификатор : 2
Формат : MPEG Audio
Версия формата : Version 1
Профиль формата : Layer 2
Идентификатор кодека : mp4a-6B
Продолжительность : 51 м. 36 с.
Duration_LastFrame : -24 мс.
Вид битрейта : Постоянный
Битрейт : 256 Кбит/сек
Каналы : 2 канала
Частота : 48,0 КГц
Метод сжатия : С потерями
Размер потока : 94,5 Мбайт (5%)
Язык : Russian
Default : Да
AlternateGroup/String : 1
No seeders - write a personal message to M0p94ok. Any questions - support@pro-jazz.com.
Нет сидеров - пишите в личку M0p94ok. Есть вопросы - support@pro-jazz.com
227
Нет комментариев. Ваш будет первым!