Поиск

2015 The Bad Plus - joue Science Fiction d'Ornette Coleman [HDTV 1080i]

2015 The Bad Plus - joue Science Fiction d'Ornette Coleman [HDTV 1080i]
Дата проведения концерта (записи):
12 сентября 2015
Место проведения:
la Cite de la musique, Philharmonie 2, Paris
Время звучания:
00:56:42
Главы (разбивка по трекам):
нет
Состав:
  • Ethan IVERSON - piano
  • Reid ANDERSON - basse
  • Dave KING - Batterie
  • Tim Berne - saxophone alto
  • Sam NEWSOME - saxophone soprano
  • Ron MILES - trompette
Треклист:

01. Law Years
02. What Reasons Could I Give
03. Rock the Clock
04. The Jungle is a Skyscraper
05. Science Fiction
06. All my Life
07. Broken Shadows
08. Happy House
All compositions by Ornette Coleman

Видео:
AVC,1920*1080i (16:9), 3890kbps, 25fps
Аудио#1:
MPEG2, 256kbps, 48kHz, 2ch
Отчёт DVDInfo/MediaInfo/BDInfo
Общее
Полное имя : \\NASF8F4EB\Jul\Dreambox для публикации\2015 The Bad Plus - joue Science Fiction d'Ornette Coleman [HDTV 1080i]\2015 The Bad Plus - joue Science Fiction d'Ornette Coleman [HDTV 1080i].mp4
Формат : MPEG-4
Профиль формата : Base Media
Идентификатор кодека : isom (isom/iso2/avc1/mp41)
Размер файла : 1,64 Гбайт
Продолжительность : 56 м. 42 с.
Общий поток : 4152 Кбит/сек
Программа кодирования : Lavf54.63.104

Видео
Идентификатор : 1
Формат : AVC
Формат/Информация : Advanced Video Codec
Профиль формата : High@L4
Настройки формата : CABAC / 4 Ref Frames
Параметр CABAC формата : Да
Параметр RefFrames формата : 4 кадра
Параметр GOP формата : M=4, N=28
Идентификатор кодека : avc1
Идентификатор кодека/Информация : Advanced Video Coding
Продолжительность : 56 м. 42 с.
Битрейт : 3890 Кбит/сек
Ширина : 1920 пикселей
Высота : 1080 пикселей
Соотношение сторон : 16:9
Режим частоты кадров : Постоянный
Частота кадров : 25,000 кадров/сек
Стандарт вещания : Component
Цветовое пространство : YUV
Субдискретизация насыщенности : 4:2:0
Битовая глубина : 8 бит
Тип развёртки : Чересстрочная
Метод сохранения типа развёртки : Раздельные поля
Порядок развёртки : Верхнее поле первое
Бит/(Пиксели*Кадры) : 0.075
Размер потока : 1,54 Гбайт (94%)
Цветовой диапазон : Limited
Основные цвета : BT.709
Характеристики трансфера : BT.709
Коэффициенты матрицы : BT.709
Codec configuration box : avcC

Аудио
Идентификатор : 2
Формат : MPEG Audio
Версия формата : Version 1
Профиль формата : Layer 2
Идентификатор кодека : mp4a-6B
Продолжительность : 56 м. 42 с.
Duration_LastFrame : -24 мс.
Вид битрейта : Постоянный
Битрейт : 256 Кбит/сек
Каналы : 2 канала
Частота : 48,0 КГц
Метод сжатия : С потерями
Размер потока : 104 Мбайт (6%)
Язык : Russian
Default : Да
AlternateGroup/String : 1
Скриншоты видео
2015 The Bad Plus - joue Science Fiction d'Ornette Coleman [HDTV 1080i] 02015 The Bad Plus - joue Science Fiction d'Ornette Coleman [HDTV 1080i] 12015 The Bad Plus - joue Science Fiction d'Ornette Coleman [HDTV 1080i] 22015 The Bad Plus - joue Science Fiction d'Ornette Coleman [HDTV 1080i] 32015 The Bad Plus - joue Science Fiction d'Ornette Coleman [HDTV 1080i] 42015 The Bad Plus - joue Science Fiction d'Ornette Coleman [HDTV 1080i] 52015 The Bad Plus - joue Science Fiction d'Ornette Coleman [HDTV 1080i] 6
По всем вопросам пишите личное сообщение пользователю M0p94ok.
503
Нет комментариев. Ваш будет первым!