Вы используете незарегистрированную версию компонента "Вкладки"!

Поиск

2014 Sound Prints feat. Dave Douglas & Joe Lovano - At Roma Jazz Festival [HDTV 1080i]

2014 Sound Prints feat. Dave Douglas & Joe Lovano - At Roma Jazz Festival [HDTV 1080i]
Дата проведения концерта (записи):
18 ноября 2014
Место проведения:
Auditorium Parco della Musica, Rome, Italy
Время звучания:
00:55:58
Главы (разбивка по трекам):
нет
Состав:
  • Dave Douglas, trumpet
  • Joe Lovano, tenor sax
  • Lawrence Fields, piano
  • Linda Oh, acoustic double bass
  • Joey Baron, drums
Видео:
AVC,1920*1080i (16:9), 4989kbps, 25fps
Аудио#1:
MPEG2, 256kbps, 48kHz, 2ch
Описание:

Джо Ловано и Дейв Дуглас — два уникальных музыканта — саксофонист и трубач мирового класса. Они оба являются чрезвычайно сильными личностями, которые создают жизненную и элегантную музыку, отмеченную виртуозными пассажами, которые, тем не менее, звучат достаточно ново и выразительно, в то же время демонстрируя прочные связи со всей джазовой традицией. Этот выдающийся дуэт отдаёт восторженную и захватывающую дань уважения и почтения таланту Уэйна Шортера, великого композитора и бесспорного гения саксофона. Ловано и Дуглас представят на сцене несколько композиций Шортера, которые они специально подготовили для этого проекта, а также свои оригинальные пьесы. Результатом явилось музыкальное чудо, в котором звуки прошлого встречаются как с настоящим, так и с будущим джаза. Экстравагантное качество их джаза удивит вас своей сложностью, утонченностью, а также эмоциональным влечением.

Отчёт DVDInfo/MediaInfo/BDInfo
Общее
Полное имя : \\NASF8F4EB\Videos\HD Video\S\Sound Prints\2015 Sound Prints - At Roma Jazz Fest [HDTV 1080i]\2015 Sound Prints - At Roma Jazz Fest [HDTV 1080i].mp4
Формат : MPEG-4
Профиль формата : Base Media
Идентификатор кодека : isom (isom/iso2/avc1/mp41)
Размер файла : 2,05 Гбайт
Продолжительность : 55 м. 58 с.
Общий поток : 5251 Кбит/сек
Программа кодирования : Lavf54.63.104

Видео
Идентификатор : 1
Формат : AVC
Формат/Информация : Advanced Video Codec
Профиль формата : High@L4
Настройки формата : CABAC / 4 Ref Frames
Параметр CABAC формата : Да
Параметр RefFrames формата : 4 кадра
Параметр GOP формата : M=4, N=28
Идентификатор кодека : avc1
Идентификатор кодека/Информация : Advanced Video Coding
Продолжительность : 55 м. 58 с.
Битрейт : 4989 Кбит/сек
Ширина : 1920 пикселей
Высота : 1080 пикселей
Соотношение сторон : 16:9
Режим частоты кадров : Постоянный
Частота кадров : 25,000 кадров/сек
Стандарт вещания : Component
Цветовое пространство : YUV
Субдискретизация насыщенности : 4:2:0
Битовая глубина : 8 бит
Тип развёртки : Чересстрочная
Метод сохранения типа развёртки : Раздельные поля
Порядок развёртки : Верхнее поле первое
Бит/(Пиксели*Кадры) : 0.096
Размер потока : 1,95 Гбайт (95%)
Цветовой диапазон : Limited
Основные цвета : BT.709
Характеристики трансфера : BT.709
Коэффициенты матрицы : BT.709
Codec configuration box : avcC

Аудио
Идентификатор : 2
Формат : MPEG Audio
Версия формата : Version 1
Профиль формата : Layer 2
Идентификатор кодека : mp4a-6B
Продолжительность : 55 м. 58 с.
Duration_LastFrame : -24 мс.
Вид битрейта : Постоянный
Битрейт : 256 Кбит/сек
Каналы : 2 канала
Частота : 48,0 КГц
Метод сжатия : С потерями
Размер потока : 103 Мбайт (5%)
Язык : Russian
Default : Да
AlternateGroup/String : 1
Any questions - support@pro-jazz.com. Есть вопросы - support@pro-jazz.com
331
Нет комментариев. Ваш будет первым!